<?xml version="1.0" standalone="no"?>
<!DOCTYPE svg PUBLIC "-//W3C//DTD SVG 1.1//EN" "http://www.w3.org/Graphics/SVG/1.1/DTD/svg11.dtd" >
<svg xmlns="http://www.w3.org/2000/svg" width="100%" height="100%">
<metadata>
Created by FontXChange 20110222 at Mon Aug  1 14:30:43 2016
 By Abacus Desk
Copyright (c) Mark Simonson, 2005. All rights reserved.
</metadata>
<defs>
<font id="ProximaNova-Regular" horiz-adv-x="388" >
  <font-face 
    font-family="ProximaNova"
    font-weight="400"
    font-stretch="normal"
    units-per-em="1000"
    panose-1="2 0 5 6 3 0 0 2 0 4"
    ascent="790"
    descent="-210"
    x-height="483"
    cap-height="667"
    bbox="-171 -272 1082 890"
    underline-thickness="20"
    underline-position="-113"
    stemh="21"
    stemv="86"
    unicode-range="U+0020-FB04"
  />
<missing-glyph horiz-adv-x="507" 
d="M429 -90h-351v842h351v-842zM397 -60v782h-288v-782h288z" />
    <glyph glyph-name="fi" unicode="fi" horiz-adv-x="509" 
d="M171 0h-75v417h-80v66h80v37c0 100 57 157 140 157c29 0 54 -5 74 -16l-19 -57c-12 7 -25 11 -43 11c-50 0 -77 -33 -77 -95v-37h98v-66h-98v-417zM397 552c-28 0 -51 22 -51 50s23 51 51 51s50 -23 50 -51s-22 -50 -50 -50zM434 0h-75v483h75v-483z" />
    <glyph glyph-name="fl" unicode="fl" horiz-adv-x="509" 
d="M171 0h-75v417h-80v66h80v37c0 100 57 157 140 157c29 0 54 -5 74 -16l-19 -57c-12 7 -25 11 -43 11c-50 0 -77 -33 -77 -95v-37h98v-66h-98v-417zM434 0h-75v667h75v-667z" />
    <glyph glyph-name="f_b" unicode="fb" horiz-adv-x="859" 
d="M171 0h-75v417h-80v66h80v37c0 100 57 157 140 157c29 0 54 -5 74 -16l-19 -57c-12 7 -25 11 -43 11c-50 0 -77 -33 -77 -95v-37h98v-66h-98v-417zM434 131c26 -42 85 -76 145 -76c97 0 155 79 155 186s-58 187 -155 187c-60 0 -119 -36 -145 -78v-219zM434 0h-75v667h75
v-257c39 53 98 85 163 85c127 0 215 -99 215 -254c0 -157 -89 -253 -215 -253c-68 0 -127 35 -163 84v-72z" />
    <glyph glyph-name="f_h" unicode="fh" horiz-adv-x="836" 
d="M171 0h-75v417h-80v66h80v37c0 100 57 157 140 157c29 0 54 -5 74 -16l-19 -57c-12 7 -25 11 -43 11c-50 0 -77 -33 -77 -95v-37h98v-66h-98v-417zM761 0h-75v318c0 86 -43 110 -109 110c-58 0 -114 -36 -142 -75v-353h-75v667h75v-254c33 41 99 82 172 82
c101 0 154 -49 154 -154v-341z" />
    <glyph glyph-name="f_k" unicode="fk" horiz-adv-x="798" 
d="M171 0h-75v417h-80v66h80v37c0 100 57 157 140 157c29 0 54 -5 74 -16l-19 -57c-12 7 -25 11 -43 11c-50 0 -77 -33 -77 -95v-37h98v-66h-98v-417zM784 0h-96l-173 217l-81 -79v-138h-75v667h75v-441l254 257h95l-214 -219z" />
    <glyph glyph-name="f_f_j" unicode="ffj" horiz-adv-x="792" 
d="M171 0h-75v417h-80v66h80v37c0 99 55 157 140 157c39 0 72 -9 102 -37l-31 -48c-16 14 -35 23 -59 23c-50 0 -77 -33 -77 -95v-37h98v-66h-98v-417zM455 0h-75v417h-80v66h80v37c0 100 57 157 140 157c29 0 54 -5 74 -16l-19 -57c-12 7 -25 11 -43 11
c-50 0 -77 -33 -77 -95v-37h98v-66h-98v-417zM680 552c-28 0 -51 22 -51 50s23 51 51 51s50 -23 50 -51s-22 -50 -50 -50zM574 -196c-49 0 -75 12 -105 36l26 56c17 -17 39 -30 69 -30c45 0 78 26 78 87v530h75v-530c0 -95 -50 -149 -143 -149z" />
    <glyph glyph-name="f_j" unicode="fj" horiz-adv-x="509" 
d="M171 0h-75v417h-80v66h80v37c0 100 57 157 140 157c29 0 54 -5 74 -16l-19 -57c-12 7 -25 11 -43 11c-50 0 -77 -33 -77 -95v-37h98v-66h-98v-417zM397 552c-28 0 -51 22 -51 50s23 51 51 51s50 -23 50 -51s-22 -50 -50 -50zM291 -196c-49 0 -75 12 -105 36l26 56
c17 -17 39 -30 69 -30c45 0 78 26 78 87v530h75v-530c0 -95 -50 -149 -143 -149z" />
    <glyph glyph-name="f_f" unicode="ff" horiz-adv-x="567" 
d="M171 0h-75v417h-80v66h80v37c0 99 55 157 140 157c39 0 72 -9 102 -37l-31 -48c-16 14 -35 23 -59 23c-50 0 -77 -33 -77 -95v-37h98v-66h-98v-417zM455 0h-75v417h-80v66h80v37c0 99 55 157 140 157c39 0 72 -9 102 -37l-31 -48c-16 14 -35 23 -59 23
c-50 0 -77 -33 -77 -95v-37h98v-66h-98v-417z" />
    <glyph glyph-name="f_f_i" unicode="ffi" horiz-adv-x="792" 
d="M171 0h-75v417h-80v66h80v37c0 99 55 157 140 157c39 0 72 -9 102 -37l-31 -48c-16 14 -35 23 -59 23c-50 0 -77 -33 -77 -95v-37h98v-66h-98v-417zM455 0h-75v417h-80v66h80v37c0 100 57 157 140 157c29 0 54 -5 74 -16l-19 -57c-12 7 -25 11 -43 11
c-50 0 -77 -33 -77 -95v-37h98v-66h-98v-417zM680 552c-28 0 -51 22 -51 50s23 51 51 51s50 -23 50 -51s-22 -50 -50 -50zM717 0h-75v483h75v-483z" />
    <glyph glyph-name="f_f_l" unicode="ffl" horiz-adv-x="792" 
d="M171 0h-75v417h-80v66h80v37c0 99 55 157 140 157c39 0 72 -9 102 -37l-31 -48c-16 14 -35 23 -59 23c-50 0 -77 -33 -77 -95v-37h98v-66h-98v-417zM455 0h-75v417h-80v66h80v37c0 100 57 157 140 157c29 0 54 -5 74 -16l-19 -57c-12 7 -25 11 -43 11
c-50 0 -77 -33 -77 -95v-37h98v-66h-98v-417zM717 0h-75v667h75v-667z" />
    <glyph glyph-name=".notdef" horiz-adv-x="507" 
d="M429 -90h-351v842h351v-842zM397 -60v782h-288v-782h288z" />
    <glyph glyph-name="space" unicode=" " horiz-adv-x="259" 
 />
    <glyph glyph-name="exclam" unicode="!" horiz-adv-x="230" 
d="M146 187h-62l-16 480h94zM115 -10c-30 0 -55 26 -55 55c0 30 25 55 55 55s55 -25 55 -55c0 -29 -25 -55 -55 -55z" />
    <glyph glyph-name="quotedbl" unicode="&#x22;" horiz-adv-x="344" 
d="M118 412h-37s-27 205 -27 219c0 25 20 46 45 46c26 0 46 -21 46 -46c0 -14 -27 -219 -27 -219zM263 412h-37s-27 205 -27 219c0 25 20 46 46 46c25 0 45 -21 45 -46c0 -14 -27 -219 -27 -219z" />
    <glyph glyph-name="numbersign" unicode="#" horiz-adv-x="591" 
d="M300 0h-61l61 181h-111l-60 -181h-62l61 181h-106l17 53h107l66 199h-108l16 52h110l60 182h62l-60 -182h110l60 182h61l-61 -182h107l-15 -52h-109l-67 -199h111l-16 -53h-113zM317 234l67 199h-110l-67 -199h110z" />
    <glyph glyph-name="dollar" unicode="$" horiz-adv-x="593" 
d="M271 -100v89c-101 6 -178 48 -228 105l50 64c38 -45 99 -85 178 -94v243c-102 28 -207 62 -207 185c0 103 87 176 207 185v91h61v-92c83 -7 149 -41 198 -92l-50 -61c-40 44 -92 69 -148 77v-218c103 -29 213 -67 213 -198c0 -90 -58 -184 -213 -195v-89h-61zM459 178
c0 65 -57 92 -127 113v-228c95 10 127 67 127 115zM150 497c0 -55 53 -79 121 -99v204c-71 -5 -121 -47 -121 -105z" />
    <glyph glyph-name="percent" unicode="%" horiz-adv-x="732" 
d="M192 348c-95 0 -161 71 -161 163c0 95 66 166 161 166c96 0 161 -71 161 -166c0 -92 -65 -163 -161 -163zM183 0h-55l426 667h56zM540 -12c-95 0 -161 71 -161 164s66 165 161 165s160 -72 160 -165s-65 -164 -160 -164zM192 399c60 0 101 49 101 112
c0 66 -41 115 -101 115c-59 0 -101 -49 -101 -115c0 -63 42 -112 101 -112zM540 39c60 0 101 49 101 113c0 65 -41 114 -101 114c-61 0 -102 -49 -102 -114c0 -64 41 -113 102 -113z" />
    <glyph glyph-name="ampersand" unicode="&#x26;" horiz-adv-x="642" 
d="M613 0h-104c-20 17 -46 43 -73 70c-49 -49 -111 -82 -192 -82c-114 0 -207 63 -207 186c0 104 70 157 147 199c-30 51 -51 103 -51 150c0 88 73 154 168 154c86 0 150 -47 150 -131c0 -100 -85 -144 -170 -188c27 -36 56 -70 78 -95c27 -32 53 -61 79 -89
c36 55 60 116 72 153l64 -29c-22 -53 -51 -116 -91 -172c40 -41 81 -81 130 -126zM252 50c55 0 101 27 139 66c-38 40 -73 78 -92 101c-28 32 -57 68 -83 106c-56 -34 -99 -75 -99 -144c0 -83 64 -129 135 -129zM210 521c0 -35 17 -76 40 -115c71 35 132 70 132 137
c0 49 -34 76 -79 76c-51 0 -93 -40 -93 -98z" />
    <glyph glyph-name="quoteright" unicode="&#x2019;" horiz-adv-x="230" 
d="M176 601c0 -61 -35 -118 -81 -151l-38 31c32 21 61 61 65 93c-2 -1 -9 -2 -14 -2c-27 0 -48 22 -48 51s23 54 53 54c34 0 63 -27 63 -76z" />
    <glyph glyph-name="parenleft" unicode="(" horiz-adv-x="248" 
d="M231 -164l-46 -35c-90 124 -141 281 -141 442s51 318 141 442l46 -34c-65 -127 -105 -241 -105 -408c0 -166 40 -281 105 -407z" />
    <glyph glyph-name="parenright" unicode=")" horiz-adv-x="248" 
d="M17 -164l46 -35c90 124 141 281 141 442s-51 318 -141 442l-46 -34c65 -127 105 -241 105 -408c0 -166 -40 -281 -105 -407z" />
    <glyph glyph-name="asterisk" unicode="*" horiz-adv-x="340" 
d="M193 389h-46l6 115l-97 -62l-22 39l102 52l-102 52l22 40l97 -63l-6 115h46l-6 -115l96 63l23 -40l-102 -52l102 -52l-23 -39l-96 62z" />
    <glyph glyph-name="plus" unicode="+" horiz-adv-x="499" 
d="M470 311h-192v-213h-57v213h-192v52h192v207h57v-207h192v-52z" />
    <glyph glyph-name="comma" unicode="," horiz-adv-x="230" 
d="M176 24c0 -61 -35 -118 -81 -151l-38 31c32 21 61 60 65 93c-2 -1 -9 -2 -14 -2c-27 0 -48 22 -48 51s23 54 53 54c34 0 63 -28 63 -76z" />
    <glyph glyph-name="hyphen" unicode="-" horiz-adv-x="300" 
d="M270 209h-240v66h240v-66z" />
    <glyph glyph-name="period" unicode="." horiz-adv-x="231" 
d="M115 -10c-30 0 -55 25 -55 55s25 55 55 55s55 -25 55 -55s-25 -55 -55 -55z" />
    <glyph glyph-name="slash" unicode="/" horiz-adv-x="296" 
d="M59 -20h-59l237 707h59z" />
    <glyph glyph-name="zero" unicode="0" horiz-adv-x="612" 
d="M306 -12c-183 0 -255 183 -255 345c0 163 72 344 255 344c182 0 255 -181 255 -344c0 -162 -73 -345 -255 -345zM306 62c127 0 170 138 170 271s-43 270 -170 270s-170 -137 -170 -270s43 -271 170 -271z" />
    <glyph glyph-name="one" unicode="1" horiz-adv-x="339" 
d="M261 0h-83v558l-107 -114l-50 51l167 172h73v-667z" />
    <glyph glyph-name="two" unicode="2" horiz-adv-x="588" 
d="M512 0h-458v67c240 188 371 299 371 414c0 86 -71 122 -140 122c-80 0 -142 -34 -181 -84l-51 53c51 68 138 105 232 105c111 0 224 -63 224 -196c0 -136 -138 -260 -324 -407h327v-74z" />
    <glyph glyph-name="three" unicode="3" horiz-adv-x="557" 
d="M266 -12c-113 0 -196 50 -237 110l49 52c39 -52 107 -88 186 -88c97 0 156 49 156 125c0 83 -68 118 -166 118c-28 0 -59 0 -69 -1v76c11 -1 42 -1 69 -1c84 0 155 33 155 110c0 74 -68 114 -149 114c-73 0 -127 -28 -176 -81l-46 52c48 59 125 103 229 103
c128 0 225 -65 225 -177c0 -97 -81 -145 -143 -155c60 -6 154 -57 154 -165c0 -111 -90 -192 -237 -192z" />
    <glyph glyph-name="four" unicode="4" horiz-adv-x="558" 
d="M432 0h-83v169h-317v69l286 429h114v-425h94v-73h-94v-169zM349 242v348l-234 -348h234z" />
    <glyph glyph-name="five" unicode="5" horiz-adv-x="590" 
d="M301 -12c-112 0 -185 41 -235 107l51 56c44 -57 103 -89 184 -89c91 0 154 62 154 143c0 88 -63 144 -153 144c-58 0 -109 -19 -154 -62l-61 21v359h408v-74h-325v-232c33 32 89 60 156 60c112 0 213 -75 213 -213c0 -135 -104 -220 -238 -220z" />
    <glyph glyph-name="six" unicode="6" horiz-adv-x="591" 
d="M309 -12c-187 0 -258 163 -258 345c0 180 84 344 272 344c85 0 143 -32 184 -80l-42 -62c-34 40 -73 68 -142 68c-130 0 -188 -131 -188 -262v-26c29 46 103 104 189 104c120 0 218 -71 218 -213c0 -115 -88 -218 -233 -218zM305 62c103 0 153 78 153 141
c0 98 -68 144 -153 144c-67 0 -131 -41 -167 -99c7 -83 51 -186 167 -186z" />
    <glyph glyph-name="seven" unicode="7" horiz-adv-x="515" 
d="M213 0h-92l269 593h-359v74h455v-57z" />
    <glyph glyph-name="eight" unicode="8" horiz-adv-x="582" 
d="M291 -12c-132 0 -239 67 -239 181c0 89 76 150 159 175c-77 22 -148 73 -148 160c0 120 117 173 228 173c110 0 229 -53 229 -173c0 -87 -72 -138 -149 -160c83 -25 159 -86 159 -175c0 -113 -108 -181 -239 -181zM291 378c41 7 145 34 145 115c0 69 -65 110 -145 110
c-81 0 -144 -41 -144 -110c0 -81 104 -108 144 -115zM291 62c82 0 155 44 155 116c0 87 -114 124 -155 129c-41 -5 -155 -42 -155 -129c0 -72 72 -116 155 -116z" />
    <glyph glyph-name="nine" unicode="9" horiz-adv-x="591" 
d="M269 -11c-85 0 -143 33 -185 80l42 62c34 -40 74 -68 143 -68c135 0 188 135 188 262c0 8 0 17 -1 26c-29 -46 -103 -104 -188 -104c-120 0 -219 71 -219 213c0 115 88 218 234 218c186 0 258 -163 258 -345c0 -180 -85 -344 -272 -344zM287 319c66 0 131 41 167 100
c-8 82 -52 185 -168 185c-102 0 -153 -77 -153 -141c0 -98 68 -144 154 -144z" />
    <glyph glyph-name="colon" unicode=":" horiz-adv-x="225" 
d="M115 380c-30 0 -55 26 -55 55c0 30 25 55 55 55s55 -25 55 -55c0 -29 -25 -55 -55 -55zM115 -10c-30 0 -55 25 -55 55s25 55 55 55s55 -25 55 -55s-25 -55 -55 -55z" />
    <glyph glyph-name="semicolon" unicode=";" horiz-adv-x="230" 
d="M115 380c-30 0 -55 26 -55 55c0 30 25 55 55 55s55 -25 55 -55c0 -29 -25 -55 -55 -55zM176 26c0 -62 -35 -118 -81 -151l-38 30c32 21 61 61 65 94c-2 -1 -9 -2 -14 -2c-27 0 -48 21 -48 51c0 29 23 54 53 54c34 0 63 -28 63 -76z" />
    <glyph glyph-name="less" unicode="&#x3c;" horiz-adv-x="499" 
d="M470 90l-441 218v53l441 219v-63l-377 -183l377 -181v-63z" />
    <glyph glyph-name="equal" unicode="=" horiz-adv-x="499" 
d="M470 404h-441v53h441v-53zM470 211h-441v53h441v-53z" />
    <glyph glyph-name="greater" unicode="&#x3e;" horiz-adv-x="499" 
d="M470 308l-441 -218v63l377 181l-377 183v63l441 -219v-53z" />
    <glyph glyph-name="question" unicode="?" horiz-adv-x="462" 
d="M203 185c-27 23 -38 51 -38 82c0 127 180 137 180 243c0 50 -39 93 -117 93c-76 0 -123 -32 -160 -82l-50 54c48 63 122 102 217 102c122 0 196 -69 196 -155c0 -151 -193 -164 -193 -262c0 -16 9 -36 26 -48zM224 -10c-30 0 -55 25 -55 55s25 55 55 55s55 -25 55 -55
s-25 -55 -55 -55z" />
    <glyph glyph-name="at" unicode="@" horiz-adv-x="783" 
d="M352 -70c-182 0 -317 137 -317 314c0 216 189 394 397 394c189 0 315 -142 315 -317c0 -156 -89 -236 -173 -236c-56 0 -88 39 -91 81v7c-35 -50 -95 -88 -159 -88c-93 0 -153 66 -153 163c0 139 117 251 235 251c65 0 109 -35 128 -78l13 62h68l-57 -271
c-1 -6 -2 -15 -2 -21c0 -33 21 -52 47 -52c39 0 109 44 109 182c0 164 -113 283 -283 283c-194 0 -359 -171 -359 -358c0 -160 120 -283 286 -283c71 0 132 22 186 56l18 -26c-62 -40 -134 -63 -208 -63zM345 141c68 0 119 48 148 90l29 139c-11 31 -44 73 -103 73
c-100 0 -176 -94 -176 -191c0 -64 37 -111 102 -111z" />
    <glyph glyph-name="A" unicode="A" horiz-adv-x="658" 
d="M649 0h-95l-59 149h-332l-59 -149h-95l269 667h103zM471 222l-142 360l-141 -360h283z" />
    <glyph glyph-name="B" unicode="B" horiz-adv-x="629" 
d="M382 0h-304v667h297c116 0 187 -70 187 -170c0 -84 -56 -140 -117 -153c71 -11 130 -84 130 -164c0 -107 -71 -180 -193 -180zM361 378c75 0 115 46 115 107c0 60 -40 108 -115 108h-200v-215h200zM366 74c77 0 123 44 123 115c0 61 -42 115 -123 115h-205v-230h205z" />
    <glyph glyph-name="C" unicode="C" horiz-adv-x="676" 
d="M394 -12c-192 0 -343 140 -343 345s151 345 343 345c118 0 200 -56 253 -132l-69 -39c-38 57 -108 97 -184 97c-146 0 -257 -111 -257 -271c0 -158 111 -271 257 -271c76 0 146 41 184 97l70 -38c-56 -77 -136 -133 -254 -133z" />
    <glyph glyph-name="D" unicode="D" horiz-adv-x="700" 
d="M306 0h-228v667h228c208 0 342 -145 342 -334c0 -190 -134 -333 -342 -333zM306 74c162 0 256 116 256 259c0 144 -91 260 -256 260h-145v-519h145z" />
    <glyph glyph-name="E" unicode="E" horiz-adv-x="569" 
d="M515 0h-437v667h437v-74h-354v-215h347v-74h-347v-230h354v-74z" />
    <glyph glyph-name="F" unicode="F" horiz-adv-x="551" 
d="M161 0h-83v667h437v-74h-354v-215h347v-74h-347v-304z" />
    <glyph glyph-name="G" unicode="G" horiz-adv-x="713" 
d="M394 -13c-190 0 -343 139 -343 346c0 208 153 345 343 345c119 0 201 -52 259 -124l-66 -42c-42 54 -113 92 -193 92c-146 0 -257 -111 -257 -271c0 -158 111 -271 257 -271c80 0 146 38 180 72v135h-230v74h312v-240c-62 -70 -153 -116 -262 -116z" />
    <glyph glyph-name="H" unicode="H" horiz-adv-x="712" 
d="M634 0h-83v306h-390v-306h-83v667h83v-287h390v287h83v-667z" />
    <glyph glyph-name="I" unicode="I" horiz-adv-x="239" 
d="M161 0h-83v667h83v-667z" />
    <glyph glyph-name="J" unicode="J" horiz-adv-x="475" 
d="M185 -12c-70 0 -128 23 -174 77l44 63c28 -35 67 -66 125 -66c82 0 134 57 134 140v465h83v-466c0 -144 -93 -213 -212 -213z" />
    <glyph glyph-name="K" unicode="K" horiz-adv-x="601" 
d="M585 0h-104l-253 300l-67 -76v-224h-83v667h83v-344l295 344h104l-278 -316z" />
    <glyph glyph-name="L" unicode="L" horiz-adv-x="493" 
d="M460 0h-393v667h83v-593h310v-74z" />
    <glyph glyph-name="M" unicode="M" horiz-adv-x="809" 
d="M731 0h-83v561l-226 -561h-34l-227 561v-561h-83v667h119l208 -514l207 514h119v-667z" />
    <glyph glyph-name="N" unicode="N" horiz-adv-x="708" 
d="M630 0h-80l-389 532v-532h-83v667h85l384 -521v521h83v-667z" />
    <glyph glyph-name="O" unicode="O" horiz-adv-x="765" 
d="M382 -12c-197 0 -331 148 -331 345s134 345 331 345s332 -148 332 -345s-135 -345 -332 -345zM382 62c149 0 246 116 246 271c0 156 -97 271 -246 271c-150 0 -245 -115 -245 -271c0 -155 95 -271 245 -271z" />
    <glyph glyph-name="P" unicode="P" horiz-adv-x="587" 
d="M161 0h-83v667h268c134 0 209 -92 209 -201s-76 -201 -209 -201h-185v-265zM336 339c79 0 133 52 133 127s-54 127 -133 127h-175v-254h175z" />
    <glyph glyph-name="Q" unicode="Q" horiz-adv-x="765" 
d="M382 -12c-197 0 -331 148 -331 345s134 345 331 345s332 -148 332 -345c0 -99 -34 -185 -92 -247l63 -67l-57 -50l-65 69c-50 -32 -112 -50 -181 -50zM382 62c48 0 91 12 127 34l-95 103l58 49l94 -102c39 48 62 113 62 187c0 156 -97 271 -246 271
c-150 0 -245 -115 -245 -271c0 -155 95 -271 245 -271z" />
    <glyph glyph-name="R" unicode="R" horiz-adv-x="609" 
d="M562 0h-98l-169 265h-134v-265h-83v667h268c122 0 210 -78 210 -201c0 -120 -83 -186 -174 -194zM336 338c79 0 134 53 134 128c0 76 -55 127 -134 127h-175v-255h175z" />
    <glyph glyph-name="S" unicode="S" horiz-adv-x="586" 
d="M294 -12c-115 0 -201 44 -256 106l50 64c43 -50 115 -96 209 -96c119 0 157 64 157 116c0 172 -395 76 -395 314c0 110 98 186 230 186c101 0 180 -35 236 -94l-50 -61c-50 56 -120 80 -193 80c-79 0 -137 -43 -137 -106c0 -150 395 -64 395 -313
c0 -96 -66 -196 -246 -196z" />
    <glyph glyph-name="T" unicode="T" horiz-adv-x="570" 
d="M326 0h-83v593h-211v74h506v-74h-212v-593z" />
    <glyph glyph-name="U" unicode="U" horiz-adv-x="701" 
d="M350 -12c-180 0 -272 107 -272 271v408h84v-406c0 -122 65 -199 188 -199s189 77 189 199v406h84v-407c0 -166 -92 -272 -273 -272z" />
    <glyph glyph-name="V" unicode="V" horiz-adv-x="658" 
d="M381 0h-103l-269 667h95l225 -576l225 576h95z" />
    <glyph glyph-name="W" unicode="W" horiz-adv-x="883" 
d="M678 0h-90l-147 538l-147 -538h-90l-190 667h92l148 -556l153 556h69l153 -556l147 556h93z" />
    <glyph glyph-name="X" unicode="X" horiz-adv-x="652" 
d="M640 0h-101l-213 284l-213 -284h-101l260 342l-245 325h101l198 -266l197 266h102l-245 -324z" />
    <glyph glyph-name="Y" unicode="Y" horiz-adv-x="626" 
d="M355 0h-83v282l-263 385h97l207 -310l207 310h97l-262 -385v-282z" />
    <glyph glyph-name="Z" unicode="Z" horiz-adv-x="585" 
d="M537 0h-489v69l375 524h-375v74h482v-69l-376 -524h383v-74z" />
    <glyph glyph-name="bracketleft" unicode="[" horiz-adv-x="243" 
d="M226 -190h-186v868h186v-55h-127v-758h127v-55z" />
    <glyph glyph-name="backslash" unicode="\" horiz-adv-x="296" 
d="M237 -20l-237 707h59l237 -707h-59z" />
    <glyph glyph-name="bracketright" unicode="]" horiz-adv-x="243" 
d="M204 -190h-187v55h128v758h-128v55h187v-868z" />
    <glyph glyph-name="asciicircum" unicode="^" horiz-adv-x="432" 
d="M413 333h-62l-135 279l-135 -279h-62l169 334h57z" />
    <glyph glyph-name="underscore" unicode="_" horiz-adv-x="564" 
d="M567 -95h-570v55h570v-55z" />
    <glyph glyph-name="quoteleft" unicode="&#x2018;" horiz-adv-x="230" 
d="M48 527c0 61 35 118 80 150l38 -30c-32 -21 -61 -61 -65 -93c2 0 9 2 14 2c27 0 48 -22 48 -51c0 -30 -23 -54 -53 -54c-33 0 -62 27 -62 76z" />
    <glyph glyph-name="a" unicode="a" horiz-adv-x="528" 
d="M452 0h-75v55c-39 -44 -95 -67 -160 -67c-81 0 -168 55 -168 160c0 109 86 159 168 159c66 0 121 -21 160 -65v87c0 64 -52 101 -122 101c-58 0 -105 -20 -148 -67l-35 52c52 54 114 80 193 80c103 0 187 -46 187 -163v-332zM245 42c52 0 103 20 132 60v92
c-29 39 -80 59 -132 59c-71 0 -120 -44 -120 -105c0 -62 49 -106 120 -106z" />
    <glyph glyph-name="b" unicode="b" horiz-adv-x="575" 
d="M150 131c26 -42 85 -76 145 -76c97 0 155 79 155 186s-58 187 -155 187c-60 0 -119 -36 -145 -78v-219zM150 0h-75v667h75v-257c39 53 98 85 163 85c127 0 215 -99 215 -254c0 -157 -89 -253 -215 -253c-68 0 -127 35 -163 84v-72z" />
    <glyph glyph-name="c" unicode="c" horiz-adv-x="496" 
d="M288 -12c-144 0 -241 111 -241 254s97 253 241 253c88 0 140 -36 177 -84l-50 -45c-32 44 -73 62 -123 62c-102 0 -167 -79 -167 -186s65 -187 167 -187c50 0 91 20 123 63l50 -46c-37 -48 -89 -84 -177 -84z" />
    <glyph glyph-name="d" unicode="d" horiz-adv-x="575" 
d="M500 0h-75v72c-36 -49 -95 -84 -163 -84c-126 0 -215 96 -215 253c0 155 89 254 215 254c65 0 124 -32 163 -85v257h75v-667zM281 55c59 0 118 35 144 77v218c-26 42 -85 78 -144 78c-98 0 -156 -80 -156 -187s58 -186 156 -186z" />
    <glyph glyph-name="e" unicode="e" horiz-adv-x="563" 
d="M294 -12c-144 0 -247 103 -247 254c0 140 100 253 238 253c146 0 232 -114 232 -259v-19h-390c6 -91 69 -167 173 -167c56 0 111 22 150 62l36 -49c-49 -48 -114 -75 -192 -75zM443 273c-1 71 -49 160 -159 160c-103 0 -154 -87 -158 -160h317z" />
    <glyph glyph-name="f" unicode="f" horiz-adv-x="284" 
d="M171 0h-75v417h-80v66h80v37c0 99 55 157 140 157c39 0 72 -9 102 -37l-31 -48c-16 14 -35 23 -59 23c-50 0 -77 -33 -77 -95v-37h98v-66h-98v-417z" />
    <glyph glyph-name="g" unicode="g" horiz-adv-x="575" 
d="M269 -196c-81 0 -137 16 -195 73l38 54c40 -47 88 -65 157 -65c80 0 156 39 156 141v73c-36 -49 -95 -86 -163 -86c-126 0 -215 94 -215 250c0 155 88 251 215 251c65 0 124 -32 163 -85v73h75v-476c0 -153 -113 -203 -231 -203zM281 61c59 0 117 36 144 78v212
c-27 41 -85 77 -144 77c-98 0 -156 -77 -156 -184c0 -106 58 -183 156 -183z" />
    <glyph glyph-name="h" unicode="h" horiz-adv-x="552" 
d="M477 0h-75v318c0 86 -43 110 -109 110c-58 0 -114 -36 -142 -75v-353h-75v667h75v-254c33 41 99 82 172 82c101 0 154 -49 154 -154v-341z" />
    <glyph glyph-name="i" unicode="i" horiz-adv-x="225" 
d="M113 552c-28 0 -51 22 -51 50s23 51 51 51s50 -23 50 -51s-22 -50 -50 -50zM150 0h-75v483h75v-483z" />
    <glyph glyph-name="j" unicode="j" horiz-adv-x="225" 
d="M113 552c-28 0 -51 22 -51 50s23 51 51 51s50 -23 50 -51s-22 -50 -50 -50zM7 -196c-49 0 -75 12 -105 36l26 56c17 -17 39 -30 69 -30c45 0 78 26 78 87v530h75v-530c0 -95 -50 -149 -143 -149z" />
    <glyph glyph-name="k" unicode="k" horiz-adv-x="514" 
d="M500 0h-96l-173 217l-81 -79v-138h-75v667h75v-441l254 257h95l-214 -219z" />
    <glyph glyph-name="l" unicode="l" horiz-adv-x="225" 
d="M150 0h-75v667h75v-667z" />
    <glyph glyph-name="m" unicode="m" horiz-adv-x="808" 
d="M733 0h-75v328c0 61 -26 100 -89 100c-50 0 -103 -35 -128 -74v-354h-75v328c0 61 -25 100 -89 100c-49 0 -101 -36 -127 -75v-353h-75v483h75v-70c21 31 85 82 157 82c73 0 115 -40 129 -90c27 44 92 90 162 90c88 0 135 -49 135 -146v-349z" />
    <glyph glyph-name="n" unicode="n" horiz-adv-x="552" 
d="M476 0h-74v316c0 86 -44 112 -109 112c-59 0 -114 -36 -143 -75v-353h-75v483h75v-70c34 41 100 82 173 82c100 0 153 -51 153 -156v-339z" />
    <glyph glyph-name="o" unicode="o" horiz-adv-x="572" 
d="M286 -12c-147 0 -239 114 -239 254s92 253 239 253s239 -113 239 -253s-92 -254 -239 -254zM286 55c103 0 160 88 160 187c0 98 -57 186 -160 186s-160 -88 -160 -186c0 -99 57 -187 160 -187z" />
    <glyph glyph-name="p" unicode="p" horiz-adv-x="572" 
d="M313 -12c-66 0 -123 32 -163 85v-257h-75v667h75v-72c35 49 95 84 163 84c127 0 215 -96 215 -253c0 -156 -88 -254 -215 -254zM294 55c97 0 155 80 155 187s-58 186 -155 186c-59 0 -118 -35 -144 -77v-218c26 -42 85 -78 144 -78z" />
    <glyph glyph-name="q" unicode="q" horiz-adv-x="572" 
d="M278 55c59 0 118 36 144 78v218c-26 42 -85 77 -144 77c-97 0 -155 -79 -155 -186s58 -187 155 -187zM259 -12c-127 0 -215 98 -215 254c0 157 88 253 215 253c68 0 128 -35 163 -84v72h75v-667h-75v257c-40 -53 -97 -85 -163 -85z" />
    <glyph glyph-name="r" unicode="r" horiz-adv-x="330" 
d="M150 0h-75v483h75v-77c39 50 95 88 161 88v-77c-9 1 -18 2 -29 2c-47 0 -110 -38 -132 -77v-342z" />
    <glyph glyph-name="s" unicode="s" horiz-adv-x="465" 
d="M229 -12c-80 0 -146 25 -195 76l38 54c32 -37 93 -69 159 -69c74 0 115 35 115 83c0 117 -299 45 -299 224c0 76 64 139 179 139c83 0 141 -31 179 -70l-35 -52c-29 35 -81 61 -144 61c-66 0 -107 -33 -107 -76c0 -105 299 -36 299 -224c0 -81 -65 -146 -189 -146z" />
    <glyph glyph-name="t" unicode="t" horiz-adv-x="294" 
d="M198 -12c-72 0 -108 41 -108 113v316h-80v66h80v132h76v-132h98v-66h-98v-300c0 -36 16 -62 48 -62c22 0 41 10 51 21l22 -57c-19 -18 -46 -31 -89 -31z" />
    <glyph glyph-name="u" unicode="u" horiz-adv-x="551" 
d="M476 0h-75v68c-37 -42 -100 -80 -172 -80c-101 0 -154 50 -154 154v341h75v-318c0 -85 43 -110 109 -110c58 0 114 34 142 73v355h75v-483z" />
    <glyph glyph-name="v" unicode="v" horiz-adv-x="490" 
d="M286 0h-82l-201 483h82l160 -396l161 396h81z" />
    <glyph glyph-name="w" unicode="w" horiz-adv-x="734" 
d="M569 0h-76l-126 388l-126 -388h-75l-154 483h78l118 -385l127 385h65l126 -385l118 385h79z" />
    <glyph glyph-name="x" unicode="x" horiz-adv-x="487" 
d="M475 0h-86l-146 198l-145 -198h-86l185 248l-175 235h87l134 -184l135 184h86l-175 -235z" />
    <glyph glyph-name="y" unicode="y" horiz-adv-x="490" 
d="M49 -189l11 68c11 -5 29 -8 41 -8c33 0 55 11 72 51l32 73l-202 488h82l160 -396l161 396h81l-242 -581c-29 -70 -78 -97 -142 -98c-16 0 -41 3 -54 7z" />
    <glyph glyph-name="z" unicode="z" horiz-adv-x="472" 
d="M420 0h-368v59l266 358h-266v66h364v-57l-268 -360h272v-66z" />
    <glyph glyph-name="braceleft" unicode="{" horiz-adv-x="261" 
d="M244 -190h-62c-63 0 -124 52 -124 134v206c0 37 -17 69 -53 69v50c36 0 53 32 53 69v205c0 83 61 135 124 135h62v-55h-62c-35 0 -66 -32 -66 -79v-212c0 -42 -12 -74 -45 -88c33 -14 45 -46 45 -88v-211c0 -46 31 -80 66 -80h62v-55z" />
    <glyph glyph-name="bar" unicode="|" horiz-adv-x="211" 
d="M133 -20h-55v707h55v-707z" />
    <glyph glyph-name="braceright" unicode="}" horiz-adv-x="261" 
d="M17 -190v55h61c36 0 67 34 67 80v211c0 42 12 74 45 88c-33 14 -45 46 -45 88v212c0 47 -31 79 -67 79h-61v55h61c64 0 125 -52 125 -135v-205c0 -37 17 -69 52 -69v-50c-35 0 -52 -32 -52 -69v-206c0 -82 -61 -134 -125 -134h-61z" />
    <glyph glyph-name="asciitilde" unicode="~" horiz-adv-x="503" 
d="M420 667l55 -6c-11 -121 -38 -238 -137 -238c-126 0 -95 190 -173 190c-49 0 -71 -79 -82 -191l-56 7c11 121 40 237 138 237c126 0 95 -191 173 -191c49 0 71 78 82 192z" />
    <glyph glyph-name="exclamdown" unicode="&#xa1;" horiz-adv-x="230" 
d="M68 -184l15 480h63l16 -480h-94zM60 438c0 30 25 55 55 55s54 -25 54 -55c0 -29 -24 -54 -54 -54s-55 25 -55 54z" />
    <glyph glyph-name="cent" unicode="&#xa2;" horiz-adv-x="496" 
d="M252 -100v91c-124 16 -205 120 -205 251c0 130 81 233 205 250v73h59v-71c74 -6 120 -40 154 -83l-50 -45c-28 38 -63 57 -104 61v-371c41 4 76 24 104 62l50 -46c-34 -44 -80 -77 -154 -83v-89h-59zM125 242c0 -93 48 -165 127 -183v365c-79 -18 -127 -90 -127 -182z
" />
    <glyph glyph-name="sterling" unicode="&#xa3;" horiz-adv-x="518" 
d="M20 268v54h105c-36 42 -77 85 -77 158c0 111 103 197 224 197c91 0 165 -41 202 -112l-67 -40c-17 43 -66 82 -127 82c-76 0 -142 -48 -142 -128c0 -73 46 -111 80 -157h150v-54h-122c4 -13 7 -27 7 -43c0 -61 -35 -103 -76 -132c15 5 34 9 52 9c64 0 92 -41 148 -41
c44 0 82 22 95 40l36 -67c-28 -27 -72 -47 -135 -47c-90 0 -104 46 -179 46c-34 0 -76 -18 -118 -40l-29 63c85 37 132 92 132 152c0 22 -6 42 -15 60h-144z" />
    <glyph glyph-name="fraction" unicode="&#x2044;" horiz-adv-x="139" 
d="M310 667l-427 -667h-54l426 667h55z" />
    <glyph glyph-name="fraction" unicode="&#x2215;" horiz-adv-x="139" 
d="M310 667l-427 -667h-54l426 667h55z" />
    <glyph glyph-name="yen" unicode="&#xa5;" horiz-adv-x="626" 
d="M355 0h-83v122h-250v53h250v107h-250v52h214l-227 333h97l207 -310l207 310h97l-227 -333h215v-52h-250v-107h250v-53h-250v-122z" />
    <glyph glyph-name="florin" unicode="&#x192;" horiz-adv-x="432" 
d="M109 -161h-84l92 415h-68v68h82l46 204c20 93 88 151 174 151c38 0 69 -9 94 -36l-37 -61c-12 16 -27 23 -49 23c-49 0 -88 -34 -101 -92l-42 -189h139v-68h-153z" />
    <glyph glyph-name="section" unicode="&#xa7;" horiz-adv-x="468" 
d="M418 315c0 -55 -31 -101 -92 -127c56 -22 92 -57 92 -122c0 -93 -78 -147 -189 -147c-99 0 -153 37 -195 78l38 49c30 -36 85 -71 157 -71c68 0 117 32 117 86c0 123 -299 52 -299 230c0 70 54 111 114 127c-69 22 -114 57 -114 124c0 73 66 135 179 135
c90 0 146 -34 179 -71l-35 -45c-34 41 -89 60 -141 60c-65 0 -110 -31 -110 -80c0 -112 299 -38 299 -226zM344 306c0 57 -58 77 -113 91c-87 -22 -112 -56 -112 -99c0 -59 70 -73 142 -91c53 23 83 52 83 99z" />
    <glyph glyph-name="currency" unicode="&#xa4;" horiz-adv-x="522" 
d="M486 137l-29 -29l-56 57c-39 -33 -90 -51 -140 -51c-51 0 -101 18 -140 51l-57 -57l-28 29l56 56c-32 40 -50 90 -50 140c0 51 18 101 50 140l-56 57l28 28l57 -56c39 33 89 50 140 50c50 0 101 -18 140 -50l56 56l29 -28l-56 -57c32 -39 50 -89 50 -140
c0 -50 -18 -100 -50 -140zM432 333c0 95 -77 171 -171 171s-171 -76 -171 -171c0 -94 77 -171 171 -171s171 77 171 171z" />
    <glyph glyph-name="quotesingle" unicode="'" horiz-adv-x="199" 
d="M118 412h-37s-27 205 -27 219c0 25 20 46 45 46c26 0 46 -21 46 -46c0 -14 -27 -219 -27 -219z" />
    <glyph glyph-name="quotedblleft" unicode="&#x201c;" horiz-adv-x="390" 
d="M54 527c0 61 35 118 81 150l37 -30c-32 -21 -60 -61 -64 -93c1 0 8 2 13 2c28 0 49 -22 49 -51c0 -30 -24 -54 -54 -54c-33 0 -62 27 -62 76zM214 527c0 61 35 118 81 150l37 -30c-32 -21 -60 -61 -64 -93c2 0 9 2 13 2c28 0 49 -22 49 -51c0 -30 -24 -54 -54 -54
c-33 0 -62 27 -62 76z" />
    <glyph glyph-name="guillemotleft" unicode="&#xab;" horiz-adv-x="439" 
d="M409 63h-75l-160 180l160 177h75l-160 -177zM265 63h-75l-160 180l160 177h75l-160 -177z" />
    <glyph glyph-name="guilsinglleft" unicode="&#x2039;" horiz-adv-x="295" 
d="M265 63h-75l-160 180l160 177h75l-160 -177z" />
    <glyph glyph-name="guilsinglright" unicode="&#x203a;" horiz-adv-x="295" 
d="M265 243l-160 -180h-75l160 180l-160 177h75z" />
    <glyph glyph-name="endash" unicode="&#x2013;" horiz-adv-x="593" 
d="M563 209h-533v66h533v-66z" />
    <glyph glyph-name="dagger" unicode="&#x2020;" horiz-adv-x="263" 
d="M240 531l-89 4l4 -208h-48l5 208l-89 -4v43l89 -3l-5 106h48l-4 -106l89 3v-43z" />
    <glyph glyph-name="daggerdbl" unicode="&#x2021;" horiz-adv-x="263" 
d="M240 574v-43l-89 4v-213l89 4v-43l-89 3l4 -106h-48l4 106l-88 -3v43l88 -4v213l-88 -4v43l88 -3l-4 106h48l-4 -106z" />
    <glyph glyph-name="periodcentered" unicode="&#xb7;" horiz-adv-x="231" 
d="M170 245c0 -30 -25 -55 -55 -55s-55 25 -55 55c0 29 25 54 55 54s55 -25 55 -54z" />
    <glyph glyph-name="periodcentered" unicode="&#x2219;" horiz-adv-x="231" 
d="M170 245c0 -30 -25 -55 -55 -55s-55 25 -55 55c0 29 25 54 55 54s55 -25 55 -54z" />
    <glyph glyph-name="paragraph" unicode="&#xb6;" horiz-adv-x="449" 
d="M378 -100h-45v722h-89v-722h-45v423c-95 0 -172 77 -172 172s77 172 172 172h179v-767z" />
    <glyph glyph-name="bullet" unicode="&#x2022;" horiz-adv-x="358" 
d="M288 242c0 -58 -49 -107 -108 -107s-108 49 -108 107c0 59 49 108 108 108s108 -49 108 -108z" />
    <glyph glyph-name="quotesinglbase" unicode="&#x201a;" horiz-adv-x="230" 
d="M176 24c0 -61 -35 -118 -81 -151l-38 31c32 21 61 60 65 93c-2 -1 -9 -2 -14 -2c-27 0 -48 22 -48 51s23 54 53 54c34 0 63 -28 63 -76z" />
    <glyph glyph-name="quotedblbase" unicode="&#x201e;" horiz-adv-x="390" 
d="M176 24c0 -61 -35 -118 -81 -151l-38 31c32 21 61 60 65 93c-2 -1 -9 -2 -14 -2c-27 0 -48 22 -48 51s23 54 53 54c34 0 63 -28 63 -76zM336 24c0 -61 -35 -118 -81 -151l-37 31c32 21 60 60 64 93c-1 -1 -9 -2 -13 -2c-28 0 -49 22 -49 51s24 54 54 54
c33 0 62 -28 62 -76z" />
    <glyph glyph-name="quotedblright" unicode="&#x201d;" horiz-adv-x="390" 
d="M336 601c0 -61 -35 -118 -81 -151l-37 31c32 21 60 61 64 93c-1 -1 -9 -2 -13 -2c-28 0 -49 22 -49 51s24 54 54 54c33 0 62 -27 62 -76zM176 601c0 -61 -35 -118 -81 -151l-38 31c32 21 61 61 65 93c-2 -1 -9 -2 -14 -2c-27 0 -48 22 -48 51s23 54 53 54
c34 0 63 -27 63 -76z" />
    <glyph glyph-name="guillemotright" unicode="&#xbb;" horiz-adv-x="439" 
d="M265 243l-160 -180h-75l160 180l-160 177h75zM409 243l-160 -180h-75l160 180l-160 177h75z" />
    <glyph glyph-name="ellipsis" unicode="&#x2026;" horiz-adv-x="691" 
d="M170 45c0 -29 -25 -55 -55 -55s-55 26 -55 55c0 30 25 55 55 55s55 -25 55 -55zM400 45c0 -29 -25 -55 -55 -55s-55 26 -55 55c0 30 25 55 55 55s55 -25 55 -55zM630 45c0 -29 -24 -55 -54 -55s-55 26 -55 55c0 30 25 55 55 55s54 -25 54 -55z" />
    <glyph glyph-name="perthousand" unicode="&#x2030;" horiz-adv-x="1084" 
d="M353 511c0 -92 -65 -163 -161 -163c-95 0 -161 71 -161 163c0 95 66 166 161 166c96 0 161 -71 161 -166zM610 667l-427 -667h-55l426 667h56zM700 152c0 -93 -65 -164 -160 -164s-161 71 -161 164s66 165 161 165s160 -72 160 -165zM293 511c0 69 -41 119 -101 119
c-59 0 -101 -50 -101 -119c0 -65 42 -116 101 -116c60 0 101 51 101 116zM641 152c0 67 -41 118 -101 118c-61 0 -102 -51 -102 -118c0 -66 41 -117 102 -117c60 0 101 51 101 117zM1053 152c0 -93 -66 -164 -161 -164s-161 71 -161 164s66 165 161 165s161 -72 161 -165z
M993 152c0 67 -41 118 -101 118s-101 -51 -101 -118c0 -66 41 -117 101 -117s101 51 101 117z" />
    <glyph glyph-name="questiondown" unicode="&#xbf;" horiz-adv-x="394" 
d="M259 296c27 -23 38 -51 38 -82c0 -127 -180 -137 -180 -243c0 -50 39 -93 117 -93c76 0 123 32 160 81l50 -53c-48 -63 -122 -102 -217 -102c-122 0 -196 69 -196 155c0 151 193 164 193 262c0 16 -9 36 -26 48zM238 493c30 0 55 -25 55 -55s-25 -55 -55 -55
s-55 25 -55 55s25 55 55 55z" />
    <glyph glyph-name="grave" unicode="`" horiz-adv-x="226" 
d="M226 556h-57l-169 144h78z" />
    <glyph glyph-name="grave" unicode="&#x2cb;" horiz-adv-x="226" 
d="M226 556h-57l-169 144h78z" />
    <glyph glyph-name="acute" unicode="&#xb4;" horiz-adv-x="226" 
d="M226 700l-169 -144h-57l148 144h78z" />
    <glyph glyph-name="circumflex" unicode="&#x2c6;" horiz-adv-x="265" 
d="M265 556h-51l-83 106l-80 -106h-51l95 144h72z" />
    <glyph glyph-name="tilde" unicode="&#x2dc;" horiz-adv-x="313" 
d="M216 554c-72 0 -75 92 -123 92c-27 0 -48 -26 -48 -86h-45c0 78 34 134 97 134c72 0 75 -92 123 -92c27 0 48 26 48 86h45c0 -78 -34 -134 -97 -134z" />
    <glyph glyph-name="macron" unicode="&#xaf;" horiz-adv-x="363" 
d="M363 591h-363v48h363v-48z" />
    <glyph glyph-name="macron" unicode="&#x203e;" horiz-adv-x="363" 
d="M363 591h-363v48h363v-48z" />
    <glyph glyph-name="breve" unicode="&#x2d8;" horiz-adv-x="351" 
d="M351 651c-40 -54 -103 -88 -175 -88c-71 0 -135 34 -176 88l38 32c31 -44 79 -72 138 -72c58 0 107 27 139 72z" />
    <glyph glyph-name="dotaccent" unicode="&#x2d9;" horiz-adv-x="112" 
d="M56 573c-25 0 -47 21 -47 47s22 47 47 47c26 0 47 -21 47 -47s-21 -47 -47 -47z" />
    <glyph glyph-name="dieresis" unicode="&#xa8;" horiz-adv-x="272" 
d="M286 604c0 -25 -21 -46 -47 -46c-25 0 -46 21 -46 46c0 26 21 46 46 46c26 0 47 -20 47 -46zM79 604c0 -25 -21 -46 -46 -46c-26 0 -47 21 -47 46c0 26 21 46 47 46c25 0 46 -20 46 -46z" />
    <glyph glyph-name="ring" unicode="&#x2da;" horiz-adv-x="196" 
d="M99 554c-54 0 -99 45 -99 99s45 99 99 99s97 -45 97 -99s-43 -99 -97 -99zM99 594c32 0 58 27 58 59s-26 59 -58 59c-33 0 -59 -27 -59 -59s26 -59 59 -59z" />
    <glyph glyph-name="cedilla" unicode="&#xb8;" horiz-adv-x="205" 
d="M101 -191c-43 0 -81 14 -101 30l19 38c25 -20 53 -29 80 -29c33 0 61 15 61 42c0 21 -12 35 -37 35c-14 0 -29 -6 -38 -17l-33 19l31 84h45l-26 -66c10 8 24 11 37 11c38 0 66 -26 66 -67c0 -49 -46 -80 -104 -80z" />
    <glyph glyph-name="hungarumlaut" unicode="&#x2dd;" horiz-adv-x="305" 
d="M163 700l-115 -144h-48l94 144h69zM305 700l-115 -144h-48l94 144h69z" />
    <glyph glyph-name="ogonek" unicode="&#x2db;" horiz-adv-x="178" 
d="M141 -105l37 -21c-14 -32 -41 -60 -88 -60s-90 26 -90 87c0 50 36 95 88 122l33 -23c-48 -24 -76 -55 -76 -97c0 -34 18 -50 45 -50s42 15 51 42z" />
    <glyph glyph-name="caron" unicode="&#x2c7;" horiz-adv-x="265" 
d="M170 556h-72l-98 144h51l83 -106l80 106h51z" />
    <glyph glyph-name="emdash" unicode="&#x2014;" horiz-adv-x="833" 
d="M803 209h-773v66h773v-66z" />
    <glyph glyph-name="AE" unicode="&#xc6;" horiz-adv-x="948" 
d="M893 0h-437v149h-262l-92 -149h-95l416 667h470v-74h-354v-215h347v-74h-347v-230h354v-74zM456 222v360l-222 -360h222z" />
    <glyph glyph-name="ordfeminine" unicode="&#xaa;" horiz-adv-x="378" 
d="M318 326h-57v35c-25 -26 -60 -43 -108 -43c-55 0 -112 37 -112 104c0 69 57 103 112 103c48 0 83 -16 108 -42v55c0 41 -37 65 -80 65c-35 0 -71 -14 -98 -46l-26 38c35 36 79 53 131 53c70 0 130 -30 130 -111v-211zM175 356c34 0 67 14 86 38v56c-19 24 -52 38 -86 38
c-44 0 -76 -27 -76 -66c0 -40 32 -66 76 -66z" />
    <glyph glyph-name="Lslash" unicode="&#x141;" horiz-adv-x="524" 
d="M10 221v72l88 51v323h83v-275l96 55v-72l-96 -55v-246h310v-74h-393v272z" />
    <glyph glyph-name="Oslash" unicode="&#xd8;" horiz-adv-x="765" 
d="M382 -12c-65 0 -123 16 -172 45l-22 -33h-67l44 65c-72 62 -114 157 -114 268c0 197 134 345 331 345c63 0 119 -15 167 -42l21 31h67l-42 -63c74 -62 119 -159 119 -271c0 -197 -135 -345 -332 -345zM382 62c149 0 246 116 246 271c0 84 -28 156 -78 205l-297 -441
c36 -23 79 -35 129 -35zM137 333c0 -82 26 -152 73 -201l296 440c-35 20 -77 32 -124 32c-150 0 -245 -115 -245 -271z" />
    <glyph glyph-name="OE" unicode="&#x152;" horiz-adv-x="1105" 
d="M1051 0h-437v121c-50 -88 -145 -133 -239 -133c-194 0 -324 148 -324 345s130 344 324 344c94 0 189 -44 239 -131v121h437v-74h-354v-215h347v-74h-347v-230h354v-74zM614 224v219c-40 107 -127 160 -229 160c-153 0 -248 -114 -248 -270c0 -155 95 -271 248 -271
c102 0 189 55 229 162z" />
    <glyph glyph-name="ordmasculine" unicode="&#xba;" horiz-adv-x="405" 
d="M202 318c-99 0 -162 75 -162 165c0 91 63 165 162 165c101 0 163 -74 163 -165c0 -90 -62 -165 -163 -165zM202 366c66 0 104 52 104 117s-38 116 -104 116c-65 0 -102 -51 -102 -116s37 -117 102 -117z" />
    <glyph glyph-name="ae" unicode="&#xe6;" horiz-adv-x="889" 
d="M843 217h-390c6 -91 69 -165 173 -165c56 0 111 21 150 61l36 -50c-49 -48 -114 -75 -192 -75c-94 0 -159 43 -200 100c-34 -48 -97 -100 -199 -100c-85 0 -172 55 -172 160s81 159 168 159c65 0 120 -20 160 -64v86c0 64 -52 101 -122 101c-58 0 -105 -20 -148 -67
l-35 52c52 54 114 80 193 80c90 0 148 -36 164 -106c33 58 93 106 185 106c143 0 229 -114 229 -259v-19zM452 273h317c-1 71 -49 160 -159 160c-103 0 -154 -87 -158 -160zM392 127c-6 14 -15 42 -15 65c-29 40 -80 61 -132 61c-71 0 -120 -44 -120 -105
c0 -62 49 -106 120 -106c52 0 111 20 147 85z" />
    <glyph glyph-name="dotlessi" unicode="&#x131;" horiz-adv-x="225" 
d="M150 0h-75v483h75v-483z" />
    <glyph glyph-name="lslash" unicode="&#x142;" horiz-adv-x="287" 
d="M10 228v60l96 55v324h75v-281l95 54v-60l-95 -54v-326h-75v283z" />
    <glyph glyph-name="oslash" unicode="&#xf8;" horiz-adv-x="572" 
d="M118 0h-54l48 61c-42 46 -65 110 -65 181c0 140 92 253 239 253c53 0 100 -15 137 -41l23 29h55l-45 -57c44 -46 69 -112 69 -184c0 -140 -92 -254 -239 -254c-56 0 -104 16 -142 45zM286 55c103 0 160 88 160 187c0 46 -13 91 -38 124l-220 -277c26 -22 58 -34 98 -34z
M126 242c0 -45 11 -88 34 -121l218 277c-24 19 -55 30 -92 30c-103 0 -160 -88 -160 -186z" />
    <glyph glyph-name="oe" unicode="&#x153;" horiz-adv-x="962" 
d="M916 217h-390c6 -91 70 -167 173 -167c56 0 111 22 150 62l36 -49c-49 -48 -114 -75 -192 -75c-124 0 -183 82 -208 138c-24 -53 -79 -138 -199 -138c-147 0 -239 114 -239 254s92 253 239 253c120 0 178 -87 200 -138c22 53 83 138 198 138c146 0 232 -114 232 -259v-19
zM525 273h318c-2 71 -50 160 -159 160c-104 0 -155 -87 -159 -160zM446 242c0 101 -59 186 -160 186s-160 -85 -160 -186c0 -102 59 -188 160 -188s160 86 160 188z" />
    <glyph glyph-name="germandbls" unicode="&#xdf;" horiz-adv-x="597" 
d="M578 135c0 -78 -61 -147 -186 -147c-96 0 -144 36 -186 78l38 52c28 -37 81 -68 148 -68c77 0 113 40 113 83c0 116 -287 48 -287 224c0 108 146 121 146 186c0 44 -52 67 -99 67c-63 0 -114 -42 -114 -111v-499h-75v499c0 98 73 178 190 178c92 0 175 -48 175 -126
c0 -109 -150 -112 -150 -194c0 -104 287 -34 287 -222z" />
    <glyph glyph-name="onesuperior" unicode="&#xb9;" horiz-adv-x="235" 
d="M175 421h-60v322l-66 -69l-35 37l108 110h53v-400z" />
    <glyph glyph-name="logicalnot" unicode="&#xac;" horiz-adv-x="504" 
d="M470 457v-246h-55v193h-386v53h441z" />
    <glyph glyph-name="mu" unicode="&#xb5;" horiz-adv-x="551" 
d="M150 -184h-75v667h75v-318c0 -85 43 -112 109 -112c58 0 114 36 142 75v355h75v-483h-75v68c-37 -42 -100 -80 -172 -80c-31 0 -58 5 -79 14v-186z" />
    <glyph glyph-name="mu" unicode="&#x3bc;" horiz-adv-x="551" 
d="M150 -184h-75v667h75v-318c0 -85 43 -112 109 -112c58 0 114 36 142 75v355h75v-483h-75v68c-37 -42 -100 -80 -172 -80c-31 0 -58 5 -79 14v-186z" />
    <glyph glyph-name="trademark" unicode="&#x2122;" horiz-adv-x="454" 
d="M419 447h-28v182l-75 -182h-8l-75 182v-182h-28v220h43l64 -160l64 160h43v-220zM169 641h-62v-194h-28v194h-62v26h152v-26z" />
    <glyph glyph-name="Eth" unicode="&#xd0;" horiz-adv-x="728" 
d="M334 0h-228v299h-96v61h96v307h228c208 0 342 -145 342 -334c0 -190 -134 -333 -342 -333zM358 299h-169v-225h145c162 0 256 116 256 259c0 144 -91 260 -256 260h-145v-233h169v-61z" />
    <glyph glyph-name="onehalf" unicode="&#xbd;" horiz-adv-x="807" 
d="M590 667l-427 -667h-54l426 667h55zM760 0h-291v45c153 110 229 174 229 239c0 51 -42 73 -85 73c-49 0 -91 -24 -112 -52l-33 38c33 42 91 63 147 63c73 0 143 -36 143 -118c0 -80 -83 -153 -201 -239h203v-49zM175 267h-60v322l-66 -69l-35 37l108 110h53v-400z" />
    <glyph glyph-name="plusminus" unicode="&#xb1;" horiz-adv-x="499" 
d="M470 324h-192v-213h-57v213h-192v52h192v207h57v-207h192v-52zM470 0h-441v53h441v-53z" />
    <glyph glyph-name="Thorn" unicode="&#xde;" horiz-adv-x="587" 
d="M161 0h-83v667h83v-119h185c134 0 209 -93 209 -202s-76 -200 -209 -200h-185v-146zM336 220c79 0 133 51 133 126s-54 128 -133 128h-175v-254h175z" />
    <glyph glyph-name="onequarter" unicode="&#xbc;" horiz-adv-x="770" 
d="M590 667l-427 -667h-54l426 667h55zM733 100h-57v-100h-60v100h-196v45l173 255h83v-251h57v-49zM616 149v198l-136 -198h136zM175 267h-60v322l-66 -69l-35 37l108 110h53v-400z" />
    <glyph glyph-name="divide" unicode="&#xf7;" horiz-adv-x="511" 
d="M302 527c0 -26 -21 -47 -46 -47s-46 21 -46 47c0 25 21 45 46 45s46 -20 46 -45zM482 311h-453v52h453v-52zM302 144c0 -25 -21 -46 -46 -46s-46 21 -46 46s21 46 46 46s46 -21 46 -46z" />
    <glyph glyph-name="brokenbar" unicode="&#xa6;" horiz-adv-x="211" 
d="M133 -20h-55v316h55v-316zM133 371h-55v316h55v-316z" />
    <glyph glyph-name="degree" unicode="&#xb0;" horiz-adv-x="290" 
d="M267 555c0 -68 -55 -122 -122 -122c-68 0 -122 54 -122 122c0 67 54 122 122 122c67 0 122 -55 122 -122zM219 555c0 40 -34 74 -74 74c-41 0 -73 -34 -73 -74c0 -41 32 -73 73 -73c40 0 74 32 74 73z" />
    <glyph glyph-name="thorn" unicode="&#xfe;" horiz-adv-x="572" 
d="M313 -12c-66 0 -123 32 -163 85v-257h-75v851h75v-256c35 49 95 84 163 84c127 0 215 -96 215 -253c0 -156 -88 -254 -215 -254zM294 55c97 0 155 80 155 187s-58 186 -155 186c-59 0 -118 -35 -144 -77v-218c26 -42 85 -78 144 -78z" />
    <glyph glyph-name="threequarters" unicode="&#xbe;" horiz-adv-x="878" 
d="M698 667l-427 -667h-54l426 667h55zM842 100h-57v-100h-60v100h-196v45l173 255h83v-251h57v-49zM725 149v198l-136 -198h136zM343 376c0 -68 -57 -116 -151 -116c-71 0 -124 29 -150 65l33 38c26 -33 70 -54 116 -54c57 0 92 27 92 70c0 51 -46 69 -104 69
c-17 0 -34 0 -40 -1v50c7 -1 23 -1 40 -1c55 0 98 17 98 64c0 42 -41 64 -90 64c-44 0 -79 -16 -109 -48l-31 35c31 35 79 62 146 62c84 0 143 -41 143 -107c0 -58 -50 -86 -89 -92c38 -4 96 -34 96 -98z" />
    <glyph glyph-name="twosuperior" unicode="&#xb2;" 
d="M341 421h-291v45c153 110 229 174 229 239c0 51 -42 73 -85 73c-49 0 -91 -24 -112 -52l-33 38c33 42 91 63 147 63c73 0 143 -36 143 -118c0 -80 -83 -153 -201 -239h203v-49z" />
    <glyph glyph-name="registered" unicode="&#xae;" horiz-adv-x="494" 
d="M459 465c0 -117 -94 -212 -212 -212c-117 0 -212 95 -212 212c0 118 95 212 212 212c118 0 212 -94 212 -212zM430 465c0 103 -82 183 -183 183s-183 -80 -183 -183c0 -100 82 -183 183 -183s183 83 183 183zM345 343h-40l-63 96h-44v-96h-32v243h99c41 0 77 -29 77 -74
c0 -54 -48 -72 -62 -72zM309 512c0 27 -23 46 -44 46h-67v-90h67c21 0 44 19 44 44z" />
    <glyph glyph-name="minus" unicode="&#x2212;" horiz-adv-x="499" 
d="M470 308h-441v52h441v-52z" />
    <glyph glyph-name="eth" unicode="&#xf0;" horiz-adv-x="572" 
d="M122 497l-18 42l118 52c-24 16 -50 32 -75 48l41 62c39 -24 77 -49 112 -76l108 48l17 -41l-86 -38c108 -92 186 -206 186 -347c0 -149 -92 -259 -239 -259c-144 0 -239 106 -239 246s91 245 220 245c62 0 115 -25 158 -88c-37 66 -93 121 -160 170zM286 55
c103 0 160 84 160 179c0 94 -57 178 -160 178s-160 -84 -160 -178c0 -95 57 -179 160 -179z" />
    <glyph glyph-name="multiply" unicode="&#xd7;" horiz-adv-x="499" 
d="M398 148l-149 149l-148 -149l-37 37l149 149l-149 149l37 37l148 -149l149 149l37 -37l-148 -149l148 -149z" />
    <glyph glyph-name="threesuperior" unicode="&#xb3;" 
d="M343 530c0 -68 -57 -116 -151 -116c-71 0 -124 29 -150 65l33 38c26 -33 70 -54 116 -54c57 0 92 27 92 70c0 51 -46 69 -104 69c-17 0 -34 0 -40 -1v50c7 -1 23 -1 40 -1c55 0 98 17 98 64c0 42 -41 64 -90 64c-44 0 -79 -16 -109 -48l-31 35c31 35 79 62 146 62
c84 0 143 -41 143 -107c0 -58 -50 -86 -89 -92c38 -4 96 -34 96 -98z" />
    <glyph glyph-name="copyright" unicode="&#xa9;" horiz-adv-x="778" 
d="M734 334c0 -190 -154 -345 -345 -345c-190 0 -345 155 -345 345c0 191 155 345 345 345c191 0 345 -154 345 -345zM703 334c0 173 -141 314 -314 314c-172 0 -314 -141 -314 -314c0 -172 142 -314 314 -314c173 0 314 142 314 314zM512 212l26 -25
c-36 -42 -85 -66 -147 -66c-115 0 -208 93 -208 215s93 212 208 212c62 0 111 -24 146 -65l-25 -25c-26 35 -74 57 -121 57c-90 0 -171 -72 -171 -180c0 -105 81 -181 171 -181c48 0 95 23 121 58z" />
    <glyph glyph-name="Aacute" unicode="&#xc1;" horiz-adv-x="658" 
d="M490 872l-169 -144h-57l148 144h78zM649 0h-95l-59 149h-332l-59 -149h-95l269 667h103zM471 222l-142 360l-141 -360h283z" />
    <glyph glyph-name="Acircumflex" unicode="&#xc2;" horiz-adv-x="658" 
d="M463 728h-51l-83 106l-80 -106h-51l95 144h72zM649 0h-95l-59 149h-332l-59 -149h-95l269 667h103zM471 222l-142 360l-141 -360h283z" />
    <glyph glyph-name="Adieresis" unicode="&#xc4;" horiz-adv-x="658" 
d="M480 773c0 -25 -21 -46 -47 -46c-25 0 -46 21 -46 46c0 26 21 46 46 46c26 0 47 -20 47 -46zM273 773c0 -25 -21 -46 -46 -46c-26 0 -47 21 -47 46c0 26 21 46 47 46c25 0 46 -20 46 -46zM649 0h-95l-59 149h-332l-59 -149h-95l269 667h103zM471 222l-142 360l-141 -360
h283z" />
    <glyph glyph-name="Agrave" unicode="&#xc0;" horiz-adv-x="658" 
d="M396 728h-57l-169 144h78zM649 0h-95l-59 149h-332l-59 -149h-95l269 667h103zM471 222l-142 360l-141 -360h283z" />
    <glyph glyph-name="Aring" unicode="&#xc5;" horiz-adv-x="658" 
d="M330 692c-54 0 -99 45 -99 99s45 99 99 99s97 -45 97 -99s-43 -99 -97 -99zM330 732c32 0 58 27 58 59s-26 59 -58 59c-33 0 -59 -27 -59 -59s26 -59 59 -59zM649 0h-95l-59 149h-332l-59 -149h-95l269 667h103zM471 222l-142 360l-141 -360h283z" />
    <glyph glyph-name="Atilde" unicode="&#xc3;" horiz-adv-x="658" 
d="M389 726c-72 0 -75 92 -123 92c-27 0 -48 -26 -48 -86h-45c0 78 34 134 97 134c72 0 75 -92 123 -92c27 0 48 26 48 86h45c0 -78 -34 -134 -97 -134zM649 0h-95l-59 149h-332l-59 -149h-95l269 667h103zM471 222l-142 360l-141 -360h283z" />
    <glyph glyph-name="Ccedilla" unicode="&#xc7;" horiz-adv-x="676" 
d="M388 -187c-43 0 -81 14 -101 30l19 38c25 -20 53 -29 80 -29c33 0 61 15 61 42c0 21 -12 35 -37 35c-14 0 -29 -6 -38 -17l-33 19l21 59c-176 15 -309 150 -309 343c0 205 151 345 343 345c118 0 200 -56 253 -132l-69 -39c-38 57 -108 97 -184 97
c-146 0 -257 -111 -257 -271c0 -158 111 -271 257 -271c76 0 146 41 184 97l70 -38c-55 -75 -131 -130 -244 -133l-15 -39c10 8 24 11 37 11c38 0 66 -26 66 -67c0 -49 -46 -80 -104 -80z" />
    <glyph glyph-name="Eacute" unicode="&#xc9;" horiz-adv-x="569" 
d="M456 872l-169 -144h-57l148 144h78zM515 0h-437v667h437v-74h-354v-215h347v-74h-347v-230h354v-74z" />
    <glyph glyph-name="Ecircumflex" unicode="&#xca;" horiz-adv-x="569" 
d="M428 728h-51l-83 106l-80 -106h-51l95 144h72zM515 0h-437v667h437v-74h-354v-215h347v-74h-347v-230h354v-74z" />
    <glyph glyph-name="Edieresis" unicode="&#xcb;" horiz-adv-x="569" 
d="M446 773c0 -25 -21 -46 -47 -46c-25 0 -46 21 -46 46c0 26 21 46 46 46c26 0 47 -20 47 -46zM239 773c0 -25 -21 -46 -46 -46c-26 0 -47 21 -47 46c0 26 21 46 47 46c25 0 46 -20 46 -46zM515 0h-437v667h437v-74h-354v-215h347v-74h-347v-230h354v-74z" />
    <glyph glyph-name="Egrave" unicode="&#xc8;" horiz-adv-x="569" 
d="M363 728h-57l-169 144h78zM515 0h-437v667h437v-74h-354v-215h347v-74h-347v-230h354v-74z" />
    <glyph glyph-name="Iacute" unicode="&#xcd;" horiz-adv-x="239" 
d="M281 872l-169 -144h-57l148 144h78zM161 0h-83v667h83v-667z" />
    <glyph glyph-name="Icircumflex" unicode="&#xce;" horiz-adv-x="239" 
d="M252 728h-51l-83 106l-80 -106h-51l95 144h72zM161 0h-83v667h83v-667z" />
    <glyph glyph-name="Idieresis" unicode="&#xcf;" horiz-adv-x="239" 
d="M269 773c0 -25 -21 -46 -47 -46c-25 0 -46 21 -46 46c0 26 21 46 46 46c26 0 47 -20 47 -46zM62 773c0 -25 -21 -46 -46 -46c-26 0 -47 21 -47 46c0 26 21 46 47 46c25 0 46 -20 46 -46zM161 0h-83v667h83v-667z" />
    <glyph glyph-name="Igrave" unicode="&#xcc;" horiz-adv-x="239" 
d="M185 728h-57l-169 144h78zM161 0h-83v667h83v-667z" />
    <glyph glyph-name="Ntilde" unicode="&#xd1;" horiz-adv-x="708" 
d="M412 726c-72 0 -75 92 -123 92c-27 0 -48 -26 -48 -86h-45c0 78 34 134 97 134c72 0 75 -92 123 -92c27 0 48 26 48 86h45c0 -78 -34 -134 -97 -134zM630 0h-80l-389 532v-532h-83v667h85l384 -521v521h83v-667z" />
    <glyph glyph-name="Oacute" unicode="&#xd3;" horiz-adv-x="765" 
d="M544 872l-169 -144h-57l148 144h78zM382 -12c-197 0 -331 148 -331 345s134 345 331 345s332 -148 332 -345s-135 -345 -332 -345zM382 62c149 0 246 116 246 271c0 156 -97 271 -246 271c-150 0 -245 -115 -245 -271c0 -155 95 -271 245 -271z" />
    <glyph glyph-name="Ocircumflex" unicode="&#xd4;" horiz-adv-x="765" 
d="M517 728h-51l-83 106l-80 -106h-51l95 144h72zM382 -12c-197 0 -331 148 -331 345s134 345 331 345s332 -148 332 -345s-135 -345 -332 -345zM382 62c149 0 246 116 246 271c0 156 -97 271 -246 271c-150 0 -245 -115 -245 -271c0 -155 95 -271 245 -271z" />
    <glyph glyph-name="Odieresis" unicode="&#xd6;" horiz-adv-x="765" 
d="M532 773c0 -25 -21 -46 -47 -46c-25 0 -46 21 -46 46c0 26 21 46 46 46c26 0 47 -20 47 -46zM325 773c0 -25 -21 -46 -46 -46c-26 0 -47 21 -47 46c0 26 21 46 47 46c25 0 46 -20 46 -46zM382 -12c-197 0 -331 148 -331 345s134 345 331 345s332 -148 332 -345
s-135 -345 -332 -345zM382 62c149 0 246 116 246 271c0 156 -97 271 -246 271c-150 0 -245 -115 -245 -271c0 -155 95 -271 245 -271z" />
    <glyph glyph-name="Ograve" unicode="&#xd2;" horiz-adv-x="765" 
d="M452 728h-57l-169 144h78zM382 -12c-197 0 -331 148 -331 345s134 345 331 345s332 -148 332 -345s-135 -345 -332 -345zM382 62c149 0 246 116 246 271c0 156 -97 271 -246 271c-150 0 -245 -115 -245 -271c0 -155 95 -271 245 -271z" />
    <glyph glyph-name="Otilde" unicode="&#xd5;" horiz-adv-x="765" 
d="M442 726c-72 0 -75 92 -123 92c-27 0 -48 -26 -48 -86h-45c0 78 34 134 97 134c72 0 75 -92 123 -92c27 0 48 26 48 86h45c0 -78 -34 -134 -97 -134zM382 -12c-197 0 -331 148 -331 345s134 345 331 345s332 -148 332 -345s-135 -345 -332 -345zM382 62
c149 0 246 116 246 271c0 156 -97 271 -246 271c-150 0 -245 -115 -245 -271c0 -155 95 -271 245 -271z" />
    <glyph glyph-name="Scaron" unicode="&#x160;" horiz-adv-x="586" 
d="M323 728h-72l-98 144h51l83 -106l80 106h51zM294 -12c-115 0 -201 44 -256 106l50 64c43 -50 115 -96 209 -96c119 0 157 64 157 116c0 172 -395 76 -395 314c0 110 98 186 230 186c101 0 180 -35 236 -94l-50 -61c-50 56 -120 80 -193 80c-79 0 -137 -43 -137 -106
c0 -150 395 -64 395 -313c0 -96 -66 -196 -246 -196z" />
    <glyph glyph-name="Uacute" unicode="&#xda;" horiz-adv-x="701" 
d="M510 872l-169 -144h-57l148 144h78zM350 -12c-180 0 -272 107 -272 271v408h84v-406c0 -122 65 -199 188 -199s189 77 189 199v406h84v-407c0 -166 -92 -272 -273 -272z" />
    <glyph glyph-name="Ucircumflex" unicode="&#xdb;" horiz-adv-x="701" 
d="M488 728h-51l-83 106l-80 -106h-51l95 144h72zM350 -12c-180 0 -272 107 -272 271v408h84v-406c0 -122 65 -199 188 -199s189 77 189 199v406h84v-407c0 -166 -92 -272 -273 -272z" />
    <glyph glyph-name="Udieresis" unicode="&#xdc;" horiz-adv-x="701" 
d="M501 773c0 -25 -21 -46 -47 -46c-25 0 -46 21 -46 46c0 26 21 46 46 46c26 0 47 -20 47 -46zM294 773c0 -25 -21 -46 -46 -46c-26 0 -47 21 -47 46c0 26 21 46 47 46c25 0 46 -20 46 -46zM350 -12c-180 0 -272 107 -272 271v408h84v-406c0 -122 65 -199 188 -199
s189 77 189 199v406h84v-407c0 -166 -92 -272 -273 -272z" />
    <glyph glyph-name="Ugrave" unicode="&#xd9;" horiz-adv-x="701" 
d="M418 728h-57l-169 144h78zM350 -12c-180 0 -272 107 -272 271v408h84v-406c0 -122 65 -199 188 -199s189 77 189 199v406h84v-407c0 -166 -92 -272 -273 -272z" />
    <glyph glyph-name="Yacute" unicode="&#xdd;" horiz-adv-x="626" 
d="M477 872l-169 -144h-57l148 144h78zM355 0h-83v282l-263 385h97l207 -310l207 310h97l-262 -385v-282z" />
    <glyph glyph-name="Ydieresis" unicode="&#x178;" horiz-adv-x="626" 
d="M466 773c0 -25 -21 -46 -47 -46c-25 0 -46 21 -46 46c0 26 21 46 46 46c26 0 47 -20 47 -46zM259 773c0 -25 -21 -46 -46 -46c-26 0 -47 21 -47 46c0 26 21 46 47 46c25 0 46 -20 46 -46zM355 0h-83v282l-263 385h97l207 -310l207 310h97l-262 -385v-282z" />
    <glyph glyph-name="Zcaron" unicode="&#x17d;" horiz-adv-x="585" 
d="M330 728h-72l-98 144h51l83 -106l80 106h51zM537 0h-489v69l375 524h-375v74h482v-69l-376 -524h383v-74z" />
    <glyph glyph-name="aacute" unicode="&#xe1;" horiz-adv-x="528" 
d="M452 0h-75v55c-39 -44 -95 -67 -160 -67c-81 0 -168 55 -168 160c0 109 86 159 168 159c66 0 121 -21 160 -65v87c0 64 -52 101 -122 101c-58 0 -105 -20 -148 -67l-35 52c52 54 114 80 193 80c103 0 187 -46 187 -163v-332zM245 42c52 0 103 20 132 60v92
c-29 39 -80 59 -132 59c-71 0 -120 -44 -120 -105c0 -62 49 -106 120 -106zM427 700l-169 -144h-57l148 144h78z" />
    <glyph glyph-name="acircumflex" unicode="&#xe2;" horiz-adv-x="528" 
d="M452 0h-75v55c-39 -44 -95 -67 -160 -67c-81 0 -168 55 -168 160c0 109 86 159 168 159c66 0 121 -21 160 -65v87c0 64 -52 101 -122 101c-58 0 -105 -20 -148 -67l-35 52c52 54 114 80 193 80c103 0 187 -46 187 -163v-332zM245 42c52 0 103 20 132 60v92
c-29 39 -80 59 -132 59c-71 0 -120 -44 -120 -105c0 -62 49 -106 120 -106zM401 556h-51l-83 106l-80 -106h-51l95 144h72z" />
    <glyph glyph-name="adieresis" unicode="&#xe4;" horiz-adv-x="528" 
d="M452 0h-75v55c-39 -44 -95 -67 -160 -67c-81 0 -168 55 -168 160c0 109 86 159 168 159c66 0 121 -21 160 -65v87c0 64 -52 101 -122 101c-58 0 -105 -20 -148 -67l-35 52c52 54 114 80 193 80c103 0 187 -46 187 -163v-332zM245 42c52 0 103 20 132 60v92
c-29 39 -80 59 -132 59c-71 0 -120 -44 -120 -105c0 -62 49 -106 120 -106zM414 604c0 -25 -21 -46 -47 -46c-25 0 -46 21 -46 46c0 26 21 46 46 46c26 0 47 -20 47 -46zM207 604c0 -25 -21 -46 -46 -46c-26 0 -47 21 -47 46c0 26 21 46 47 46c25 0 46 -20 46 -46z" />
    <glyph glyph-name="agrave" unicode="&#xe0;" horiz-adv-x="528" 
d="M452 0h-75v55c-39 -44 -95 -67 -160 -67c-81 0 -168 55 -168 160c0 109 86 159 168 159c66 0 121 -21 160 -65v87c0 64 -52 101 -122 101c-58 0 -105 -20 -148 -67l-35 52c52 54 114 80 193 80c103 0 187 -46 187 -163v-332zM245 42c52 0 103 20 132 60v92
c-29 39 -80 59 -132 59c-71 0 -120 -44 -120 -105c0 -62 49 -106 120 -106zM332 556h-57l-169 144h78z" />
    <glyph glyph-name="aring" unicode="&#xe5;" horiz-adv-x="528" 
d="M452 0h-75v55c-39 -44 -95 -67 -160 -67c-81 0 -168 55 -168 160c0 109 86 159 168 159c66 0 121 -21 160 -65v87c0 64 -52 101 -122 101c-58 0 -105 -20 -148 -67l-35 52c52 54 114 80 193 80c103 0 187 -46 187 -163v-332zM245 42c52 0 103 20 132 60v92
c-29 39 -80 59 -132 59c-71 0 -120 -44 -120 -105c0 -62 49 -106 120 -106zM266 547c-54 0 -99 45 -99 99s45 99 99 99s97 -45 97 -99s-43 -99 -97 -99zM266 587c32 0 58 27 58 59s-26 59 -58 59c-33 0 -59 -27 -59 -59s26 -59 59 -59z" />
    <glyph glyph-name="atilde" unicode="&#xe3;" horiz-adv-x="528" 
d="M452 0h-75v55c-39 -44 -95 -67 -160 -67c-81 0 -168 55 -168 160c0 109 86 159 168 159c66 0 121 -21 160 -65v87c0 64 -52 101 -122 101c-58 0 -105 -20 -148 -67l-35 52c52 54 114 80 193 80c103 0 187 -46 187 -163v-332zM245 42c52 0 103 20 132 60v92
c-29 39 -80 59 -132 59c-71 0 -120 -44 -120 -105c0 -62 49 -106 120 -106zM325 554c-72 0 -75 92 -123 92c-27 0 -48 -26 -48 -86h-45c0 78 34 134 97 134c72 0 75 -92 123 -92c27 0 48 26 48 86h45c0 -78 -34 -134 -97 -134z" />
    <glyph glyph-name="ccedilla" unicode="&#xe7;" horiz-adv-x="496" 
d="M290 -189c-43 0 -81 14 -101 30l19 38c25 -20 53 -29 80 -29c33 0 61 15 61 42c0 21 -12 35 -37 35c-14 0 -29 -6 -38 -17l-33 19l22 61c-130 11 -216 117 -216 252c0 143 97 253 241 253c88 0 140 -36 177 -84l-50 -45c-32 44 -73 62 -123 62c-102 0 -167 -79 -167 -186
s65 -187 167 -187c50 0 91 20 123 63l50 -46c-34 -45 -82 -78 -158 -83l-16 -42c10 8 24 11 37 11c38 0 66 -26 66 -67c0 -49 -46 -80 -104 -80z" />
    <glyph glyph-name="eacute" unicode="&#xe9;" horiz-adv-x="563" 
d="M294 -12c-144 0 -247 103 -247 254c0 140 100 253 238 253c146 0 232 -114 232 -259v-19h-390c6 -91 69 -167 173 -167c56 0 111 22 150 62l36 -49c-49 -48 -114 -75 -192 -75zM443 273c-1 71 -49 160 -159 160c-103 0 -154 -87 -158 -160h317zM446 700l-169 -144h-57
l148 144h78z" />
    <glyph glyph-name="ecircumflex" unicode="&#xea;" horiz-adv-x="563" 
d="M294 -12c-144 0 -247 103 -247 254c0 140 100 253 238 253c146 0 232 -114 232 -259v-19h-390c6 -91 69 -167 173 -167c56 0 111 22 150 62l36 -49c-49 -48 -114 -75 -192 -75zM443 273c-1 71 -49 160 -159 160c-103 0 -154 -87 -158 -160h317zM419 556h-51l-83 106
l-80 -106h-51l95 144h72z" />
    <glyph glyph-name="edieresis" unicode="&#xeb;" horiz-adv-x="563" 
d="M294 -12c-144 0 -247 103 -247 254c0 140 100 253 238 253c146 0 232 -114 232 -259v-19h-390c6 -91 69 -167 173 -167c56 0 111 22 150 62l36 -49c-49 -48 -114 -75 -192 -75zM443 273c-1 71 -49 160 -159 160c-103 0 -154 -87 -158 -160h317zM436 604
c0 -25 -21 -46 -47 -46c-25 0 -46 21 -46 46c0 26 21 46 46 46c26 0 47 -20 47 -46zM229 604c0 -25 -21 -46 -46 -46c-26 0 -47 21 -47 46c0 26 21 46 47 46c25 0 46 -20 46 -46z" />
    <glyph glyph-name="egrave" unicode="&#xe8;" horiz-adv-x="563" 
d="M294 -12c-144 0 -247 103 -247 254c0 140 100 253 238 253c146 0 232 -114 232 -259v-19h-390c6 -91 69 -167 173 -167c56 0 111 22 150 62l36 -49c-49 -48 -114 -75 -192 -75zM443 273c-1 71 -49 160 -159 160c-103 0 -154 -87 -158 -160h317zM352 556h-57l-169 144h78z
" />
    <glyph glyph-name="iacute" unicode="&#xed;" horiz-adv-x="225" 
d="M273 700l-169 -144h-57l148 144h78zM150 0h-75v483h75v-483z" />
    <glyph glyph-name="icircumflex" unicode="&#xee;" horiz-adv-x="225" 
d="M246 556h-51l-83 106l-80 -106h-51l95 144h72zM150 0h-75v483h75v-483z" />
    <glyph glyph-name="idieresis" unicode="&#xef;" horiz-adv-x="225" 
d="M263 604c0 -25 -21 -46 -47 -46c-25 0 -46 21 -46 46c0 26 21 46 46 46c26 0 47 -20 47 -46zM56 604c0 -25 -21 -46 -46 -46c-26 0 -47 21 -47 46c0 26 21 46 47 46c25 0 46 -20 46 -46zM150 0h-75v483h75v-483z" />
    <glyph glyph-name="igrave" unicode="&#xec;" horiz-adv-x="225" 
d="M178 556h-57l-169 144h78zM150 0h-75v483h75v-483z" />
    <glyph glyph-name="ntilde" unicode="&#xf1;" horiz-adv-x="552" 
d="M479 0h-74v316c0 86 -44 112 -109 112c-59 0 -114 -36 -143 -75v-353h-75v483h75v-70c34 41 100 82 173 82c100 0 153 -51 153 -156v-339zM336 554c-72 0 -75 92 -123 92c-27 0 -48 -26 -48 -86h-45c0 78 34 134 97 134c72 0 75 -92 123 -92c27 0 48 26 48 86h45
c0 -78 -34 -134 -97 -134z" />
    <glyph glyph-name="oacute" unicode="&#xf3;" horiz-adv-x="572" 
d="M286 -12c-147 0 -239 114 -239 254s92 253 239 253s239 -113 239 -253s-92 -254 -239 -254zM286 55c103 0 160 88 160 187c0 98 -57 186 -160 186s-160 -88 -160 -186c0 -99 57 -187 160 -187zM446 700l-169 -144h-57l148 144h78z" />
    <glyph glyph-name="ocircumflex" unicode="&#xf4;" horiz-adv-x="572" 
d="M286 -12c-147 0 -239 114 -239 254s92 253 239 253s239 -113 239 -253s-92 -254 -239 -254zM286 55c103 0 160 88 160 187c0 98 -57 186 -160 186s-160 -88 -160 -186c0 -99 57 -187 160 -187zM420 556h-51l-83 106l-80 -106h-51l95 144h72z" />
    <glyph glyph-name="odieresis" unicode="&#xf6;" horiz-adv-x="572" 
d="M286 -12c-147 0 -239 114 -239 254s92 253 239 253s239 -113 239 -253s-92 -254 -239 -254zM286 55c103 0 160 88 160 187c0 98 -57 186 -160 186s-160 -88 -160 -186c0 -99 57 -187 160 -187zM436 604c0 -25 -21 -46 -47 -46c-25 0 -46 21 -46 46c0 26 21 46 46 46
c26 0 47 -20 47 -46zM229 604c0 -25 -21 -46 -46 -46c-26 0 -47 21 -47 46c0 26 21 46 47 46c25 0 46 -20 46 -46z" />
    <glyph glyph-name="ograve" unicode="&#xf2;" horiz-adv-x="572" 
d="M286 -12c-147 0 -239 114 -239 254s92 253 239 253s239 -113 239 -253s-92 -254 -239 -254zM286 55c103 0 160 88 160 187c0 98 -57 186 -160 186s-160 -88 -160 -186c0 -99 57 -187 160 -187zM352 556h-57l-169 144h78z" />
    <glyph glyph-name="otilde" unicode="&#xf5;" horiz-adv-x="572" 
d="M286 -12c-147 0 -239 114 -239 254s92 253 239 253s239 -113 239 -253s-92 -254 -239 -254zM286 55c103 0 160 88 160 187c0 98 -57 186 -160 186s-160 -88 -160 -186c0 -99 57 -187 160 -187zM346 554c-72 0 -75 92 -123 92c-27 0 -48 -26 -48 -86h-45
c0 78 34 134 97 134c72 0 75 -92 123 -92c27 0 48 26 48 86h45c0 -78 -34 -134 -97 -134z" />
    <glyph glyph-name="scaron" unicode="&#x161;" horiz-adv-x="465" 
d="M229 -12c-80 0 -146 25 -195 76l38 54c32 -37 93 -69 159 -69c74 0 115 35 115 83c0 117 -299 45 -299 224c0 76 64 139 179 139c83 0 141 -31 179 -70l-35 -52c-29 35 -81 61 -144 61c-66 0 -107 -33 -107 -76c0 -105 299 -36 299 -224c0 -81 -65 -146 -189 -146z
M266 556h-72l-98 144h51l83 -106l80 106h51z" />
    <glyph glyph-name="uacute" unicode="&#xfa;" horiz-adv-x="551" 
d="M476 0h-75v68c-37 -42 -100 -80 -172 -80c-101 0 -154 50 -154 154v341h75v-318c0 -85 43 -110 109 -110c58 0 114 34 142 73v355h75v-483zM437 700l-169 -144h-57l148 144h78z" />
    <glyph glyph-name="ucircumflex" unicode="&#xfb;" horiz-adv-x="551" 
d="M476 0h-75v68c-37 -42 -100 -80 -172 -80c-101 0 -154 50 -154 154v341h75v-318c0 -85 43 -110 109 -110c58 0 114 34 142 73v355h75v-483zM409 556h-51l-83 106l-80 -106h-51l95 144h72z" />
    <glyph glyph-name="udieresis" unicode="&#xfc;" horiz-adv-x="551" 
d="M476 0h-75v68c-37 -42 -100 -80 -172 -80c-101 0 -154 50 -154 154v341h75v-318c0 -85 43 -110 109 -110c58 0 114 34 142 73v355h75v-483zM429 604c0 -25 -21 -46 -47 -46c-25 0 -46 21 -46 46c0 26 21 46 46 46c26 0 47 -20 47 -46zM222 604c0 -25 -21 -46 -46 -46
c-26 0 -47 21 -47 46c0 26 21 46 47 46c25 0 46 -20 46 -46z" />
    <glyph glyph-name="ugrave" unicode="&#xf9;" horiz-adv-x="551" 
d="M476 0h-75v68c-37 -42 -100 -80 -172 -80c-101 0 -154 50 -154 154v341h75v-318c0 -85 43 -110 109 -110c58 0 114 34 142 73v355h75v-483zM344 556h-57l-169 144h78z" />
    <glyph glyph-name="yacute" unicode="&#xfd;" horiz-adv-x="490" 
d="M49 -189l11 68c11 -5 29 -8 41 -8c33 0 55 11 72 51l32 73l-202 488h82l160 -396l161 396h81l-242 -581c-29 -70 -78 -97 -142 -98c-16 0 -41 3 -54 7zM406 700l-169 -144h-57l148 144h78z" />
    <glyph glyph-name="ydieresis" unicode="&#xff;" horiz-adv-x="490" 
d="M49 -189l11 68c11 -5 29 -8 41 -8c33 0 55 11 72 51l32 73l-202 488h82l160 -396l161 396h81l-242 -581c-29 -70 -78 -97 -142 -98c-16 0 -41 3 -54 7zM395 604c0 -25 -21 -46 -47 -46c-25 0 -46 21 -46 46c0 26 21 46 46 46c26 0 47 -20 47 -46zM188 604
c0 -25 -21 -46 -46 -46c-26 0 -47 21 -47 46c0 26 21 46 47 46c25 0 46 -20 46 -46z" />
    <glyph glyph-name="zcaron" unicode="&#x17e;" horiz-adv-x="472" 
d="M420 0h-368v59l266 358h-266v66h364v-57l-268 -360h272v-66zM267 556h-72l-98 144h51l83 -106l80 106h51z" />
    <glyph glyph-name="dollarsuperior" unicode="&#xf6e4;" horiz-adv-x="370" 
d="M169 361v53c-65 4 -114 30 -144 66l35 39c25 -27 63 -51 109 -57v139c-66 16 -135 35 -135 114c0 61 55 107 135 111v56h42v-57c55 -5 95 -27 122 -57l-35 -35c-22 24 -53 40 -87 45v-126c65 -16 134 -38 134 -118c0 -67 -46 -112 -134 -119v-54h-42zM284 528
c0 37 -32 52 -73 63v-129c49 7 73 34 73 66zM95 720c0 -33 32 -47 74 -58v118c-43 -4 -74 -28 -74 -60z" />
    <glyph glyph-name="parenleftsuperior" unicode="&#x207d;" horiz-adv-x="161" 
d="M151 372l-35 -16c-57 70 -90 168 -90 265c0 96 33 194 90 265l35 -16c-40 -78 -63 -148 -63 -249s23 -171 63 -249z" />
    <glyph glyph-name="parenrightsuperior" unicode="&#x207e;" horiz-adv-x="161" 
d="M148 621c0 -97 -34 -194 -91 -265l-34 16c40 78 63 148 63 249s-23 171 -63 249l34 16c57 -71 91 -169 91 -265z" />
    <glyph glyph-name="commasuperior" unicode="&#xf6e2;" horiz-adv-x="139" 
d="M105 445c0 -42 -21 -80 -51 -101c-9 8 -17 14 -26 21c18 11 39 35 41 54c-1 0 -3 -1 -4 -1c-18 0 -36 16 -36 36s17 37 38 37c22 0 38 -19 38 -46z" />
    <glyph glyph-name="periodsuperior" unicode="&#xf6e8;" horiz-adv-x="143" 
d="M109 454c0 -20 -17 -37 -37 -37c-21 0 -38 17 -38 37s17 37 38 37c20 0 37 -17 37 -37z" />
    <glyph glyph-name="asuperior" unicode="&#xf6e9;" horiz-adv-x="378" 
d="M318 326h-57v35c-25 -26 -60 -43 -108 -43c-55 0 -112 37 -112 104c0 69 57 103 112 103c48 0 83 -16 108 -42v55c0 41 -37 65 -80 65c-35 0 -71 -14 -98 -46l-26 38c35 36 79 53 131 53c70 0 130 -30 130 -111v-211zM175 356c34 0 67 14 86 38v56c-19 24 -52 38 -86 38
c-44 0 -76 -27 -76 -66c0 -40 32 -66 76 -66z" />
    <glyph glyph-name="bsuperior" unicode="&#xf6ea;" horiz-adv-x="410" 
d="M211 365c61 0 100 48 100 118c0 69 -39 118 -100 118c-38 0 -76 -20 -93 -45v-147c17 -25 55 -44 93 -44zM118 326h-58v434h58v-166c26 34 65 54 108 54c84 0 144 -63 144 -165c0 -103 -61 -165 -144 -165c-45 0 -84 22 -108 54v-46z" />
    <glyph glyph-name="centsuperior" unicode="&#xf6e0;" horiz-adv-x="307" 
d="M157 416v54c-77 10 -129 71 -129 151c0 79 52 140 129 150v44h41v-43c46 -4 75 -27 95 -53l-38 -29c-15 21 -34 34 -57 38v-214c23 4 42 16 57 38l38 -30c-20 -26 -49 -48 -95 -53v-53h-41zM85 621c0 -54 28 -94 72 -105v210c-44 -11 -72 -52 -72 -105z" />
    <glyph glyph-name="dsuperior" unicode="&#xf6eb;" horiz-adv-x="410" 
d="M350 326h-57v46c-25 -32 -64 -54 -109 -54c-83 0 -144 62 -144 165c0 102 61 165 144 165c43 0 82 -20 108 -54v166h58v-434zM199 365c39 0 76 19 94 44v147c-18 25 -55 45 -94 45c-61 0 -99 -49 -99 -118c0 -70 38 -118 99 -118z" />
    <glyph glyph-name="esuperior" unicode="&#xf6ec;" horiz-adv-x="398" 
d="M207 318c-96 0 -167 67 -167 165c0 91 68 165 162 165c96 0 156 -73 156 -170v-14h-258c5 -55 46 -102 112 -102c36 0 73 13 98 38l26 -34c-32 -31 -77 -48 -129 -48zM303 506c-2 44 -32 99 -102 99c-65 0 -98 -53 -101 -99h203z" />
    <glyph glyph-name="isuperior" unicode="&#xf6ed;" horiz-adv-x="162" 
d="M81 685c-20 0 -37 17 -37 37s17 37 37 37s37 -17 37 -37s-17 -37 -37 -37zM110 326h-58v314h58v-314z" />
    <glyph glyph-name="lsuperior" unicode="&#xf6ee;" horiz-adv-x="178" 
d="M118 326h-58v434h58v-434z" />
    <glyph glyph-name="msuperior" unicode="&#xf6ef;" horiz-adv-x="571" 
d="M511 326h-57v209c0 39 -17 65 -58 65c-32 0 -66 -23 -82 -46v-228h-57v209c0 39 -16 65 -58 65c-32 0 -65 -23 -81 -46v-228h-58v314h58v-44c13 19 56 52 105 52c48 0 77 -26 87 -58c18 28 61 58 110 58c58 0 91 -33 91 -100v-222z" />
    <glyph glyph-name="nsuperior" unicode="&#x207f;" horiz-adv-x="398" 
d="M338 326h-58v201c0 55 -28 73 -70 73c-38 0 -74 -23 -92 -46v-228h-58v314h58v-44c23 25 66 52 115 52c81 0 105 -43 105 -107v-215z" />
    <glyph glyph-name="osuperior" unicode="&#xf6f0;" horiz-adv-x="405" 
d="M202 318c-99 0 -162 75 -162 165c0 91 63 165 162 165c101 0 163 -74 163 -165c0 -90 -62 -165 -163 -165zM202 366c66 0 104 52 104 117s-38 116 -104 116c-65 0 -102 -51 -102 -116s37 -117 102 -117z" />
    <glyph glyph-name="rsuperior" unicode="&#xf6f1;" horiz-adv-x="240" 
d="M118 326h-58v314h58v-48c26 31 64 55 106 55v-53l-20 1c-31 0 -72 -23 -86 -46v-223z" />
    <glyph glyph-name="ssuperior" unicode="&#xf6f2;" horiz-adv-x="330" 
d="M160 318c-58 0 -100 20 -132 53l26 36c22 -25 63 -47 107 -47c47 0 74 21 74 52c0 77 -200 27 -200 146c0 47 44 90 123 90c61 0 99 -21 122 -46l-25 -35c-19 23 -55 39 -95 39c-43 0 -69 -21 -69 -48c0 -70 200 -19 200 -142c0 -54 -45 -98 -131 -98z" />
    <glyph glyph-name="tsuperior" unicode="&#xf6f3;" horiz-adv-x="206" 
d="M139 318c-50 0 -77 28 -77 78v202h-53v42h53v86h58v-86h65v-42h-65v-194c0 -23 11 -39 31 -39c15 0 28 6 33 13c5 -13 11 -27 16 -39c-13 -12 -31 -21 -61 -21z" />
    <glyph glyph-name="parenleftinferior" unicode="&#x208d;" horiz-adv-x="161" 
d="M151 -195l-35 -16c-57 70 -90 168 -90 265c0 96 33 194 90 265l35 -16c-40 -78 -63 -148 -63 -249s23 -171 63 -249z" />
    <glyph glyph-name="parenrightinferior" unicode="&#x208e;" horiz-adv-x="161" 
d="M148 54c0 -97 -34 -194 -91 -265l-34 16c40 78 63 148 63 249s-23 171 -63 249l34 16c57 -71 91 -169 91 -265z" />
    <glyph glyph-name="hyphensuperior" unicode="&#xf6e6;" horiz-adv-x="184" 
d="M166 598h-148v47h148v-47z" />
    <glyph glyph-name="colonmonetary" unicode="&#x20a1;" horiz-adv-x="681" 
d="M398 -12c-7 0 -15 0 -22 1l-29 -89h-51l31 95c-27 5 -53 12 -78 23l-39 -118h-50l47 141c-92 59 -152 162 -152 292c0 205 151 345 343 345c7 0 15 -1 22 -1l30 91h50l-33 -97c28 -6 54 -16 77 -28l42 125h50l-51 -152c26 -20 47 -44 66 -70l-69 -39c-7 10 -15 20 -24 29
l-157 -474c75 1 143 42 181 97l70 -38c-56 -77 -136 -133 -254 -133zM141 333c0 -90 35 -164 93 -213l161 484c-145 -2 -254 -112 -254 -271zM274 92c24 -13 50 -21 77 -26l168 502c-23 14 -48 25 -76 31z" />
    <glyph glyph-name="rupiah" unicode="&#xf6dd;" horiz-adv-x="1126" 
d="M562 0h-98l-169 265h-134v-265h-83v667h268c122 0 210 -78 210 -201c0 -120 -83 -186 -174 -194zM336 338c79 0 134 53 134 128c0 76 -55 127 -134 127h-175v-255h175zM867 -12c-66 0 -123 32 -163 85v-257h-75v667h75v-72c35 49 95 84 163 84c127 0 215 -96 215 -253
c0 -156 -88 -254 -215 -254zM848 55c97 0 155 80 155 187s-58 186 -155 186c-59 0 -118 -35 -144 -77v-218c26 -42 85 -78 144 -78z" />
    <glyph glyph-name="hypheninferior" unicode="&#xf6e5;" horiz-adv-x="184" 
d="M166 30h-148v47h148v-47z" />
    <glyph glyph-name="oneeighth" unicode="&#x215b;" horiz-adv-x="807" 
d="M590 667l-427 -667h-54l426 667h55zM766 102c0 -72 -71 -109 -153 -109s-153 36 -153 109c0 53 47 91 101 104c-50 12 -94 44 -94 95c0 74 76 105 146 105s146 -31 146 -105c0 -51 -43 -83 -94 -95c54 -13 101 -51 101 -104zM699 294c0 42 -37 64 -86 64s-87 -22 -87 -64
c0 -49 67 -63 87 -68c21 5 86 19 86 68zM706 107c0 54 -71 74 -93 77c-22 -3 -94 -23 -94 -77c0 -42 44 -67 94 -67s93 25 93 67zM175 267h-60v322l-66 -69l-35 37l108 110h53v-400z" />
    <glyph glyph-name="threeeighths" unicode="&#x215c;" horiz-adv-x="915" 
d="M698 667l-427 -667h-54l426 667h55zM874 102c0 -72 -71 -109 -153 -109s-153 36 -153 109c0 53 47 91 101 104c-50 12 -94 44 -94 95c0 74 76 105 146 105s146 -31 146 -105c0 -51 -43 -83 -94 -95c54 -13 101 -51 101 -104zM807 294c0 42 -37 64 -86 64s-87 -22 -87 -64
c0 -49 67 -63 87 -68c21 5 86 19 86 68zM814 107c0 54 -71 74 -93 77c-22 -3 -94 -23 -94 -77c0 -42 44 -67 94 -67s93 25 93 67zM343 376c0 -68 -57 -116 -151 -116c-71 0 -124 29 -150 65l33 38c26 -33 70 -54 116 -54c57 0 92 27 92 70c0 51 -46 69 -104 69
c-17 0 -34 0 -40 -1v50c7 -1 23 -1 40 -1c55 0 98 17 98 64c0 42 -41 64 -90 64c-44 0 -79 -16 -109 -48l-31 35c31 35 79 62 146 62c84 0 143 -41 143 -107c0 -58 -50 -86 -89 -92c38 -4 96 -34 96 -98z" />
    <glyph glyph-name="fiveeighths" unicode="&#x215d;" horiz-adv-x="912" 
d="M695 667l-427 -667h-54l426 667h55zM871 102c0 -72 -71 -109 -153 -109s-153 36 -153 109c0 53 47 91 101 104c-50 12 -94 44 -94 95c0 74 76 105 146 105s146 -31 146 -105c0 -51 -43 -83 -94 -95c54 -13 101 -51 101 -104zM804 294c0 42 -37 64 -86 64s-87 -22 -87 -64
c0 -49 67 -63 87 -68c21 5 86 19 86 68zM811 107c0 54 -71 74 -93 77c-22 -3 -94 -23 -94 -77c0 -42 44 -67 94 -67s93 25 93 67zM344 393c0 -81 -65 -133 -152 -133c-70 0 -118 25 -148 65l35 39c27 -35 65 -55 113 -55c55 0 93 36 93 82c0 50 -37 83 -91 83
c-37 0 -67 -12 -95 -39l-43 16v216h261v-49h-200v-134c19 19 54 36 95 36c69 0 132 -43 132 -127z" />
    <glyph glyph-name="seveneighths" unicode="&#x215e;" horiz-adv-x="830" 
d="M613 667l-427 -667h-54l426 667h55zM789 102c0 -72 -71 -109 -153 -109s-153 36 -153 109c0 53 47 91 101 104c-50 12 -94 44 -94 95c0 74 76 105 146 105s146 -31 146 -105c0 -51 -43 -83 -94 -95c54 -13 101 -51 101 -104zM722 294c0 42 -37 64 -86 64s-87 -22 -87 -64
c0 -49 67 -63 87 -68c21 5 86 19 86 68zM729 107c0 54 -71 74 -93 77c-22 -3 -94 -23 -94 -77c0 -42 44 -67 94 -67s93 25 93 67zM323 626l-166 -359h-67l166 351h-223v49h290v-41z" />
    <glyph glyph-name="onethird" unicode="&#x2153;" horiz-adv-x="807" 
d="M590 667l-427 -667h-54l426 667h55zM762 109c0 -68 -57 -116 -151 -116c-71 0 -124 29 -150 65l33 38c26 -33 70 -54 116 -54c57 0 92 27 92 70c0 51 -46 69 -104 69c-17 0 -34 0 -40 -1v50c7 -1 23 -1 40 -1c55 0 98 17 98 64c0 42 -41 64 -90 64
c-44 0 -79 -16 -109 -48l-31 35c31 35 79 62 146 62c84 0 143 -41 143 -107c0 -58 -50 -86 -89 -92c38 -4 96 -34 96 -98zM175 267h-60v322l-66 -69l-35 37l108 110h53v-400z" />
    <glyph glyph-name="twothirds" unicode="&#x2154;" horiz-adv-x="915" 
d="M698 667l-427 -667h-54l426 667h55zM870 109c0 -68 -57 -116 -151 -116c-71 0 -124 29 -150 65l33 38c26 -33 70 -54 116 -54c57 0 92 27 92 70c0 51 -46 69 -104 69c-17 0 -34 0 -40 -1v50c7 -1 23 -1 40 -1c55 0 98 17 98 64c0 42 -41 64 -90 64
c-44 0 -79 -16 -109 -48l-31 35c31 35 79 62 146 62c84 0 143 -41 143 -107c0 -58 -50 -86 -89 -92c38 -4 96 -34 96 -98zM341 267h-291v45c153 110 229 174 229 239c0 51 -42 73 -85 73c-49 0 -91 -24 -112 -52l-33 38c33 42 91 63 147 63c73 0 143 -36 143 -118
c0 -80 -83 -153 -201 -239h203v-49z" />
    <glyph glyph-name="zerosuperior" unicode="&#x2070;" 
d="M356 621c0 -99 -48 -207 -162 -207c-115 0 -161 108 -161 207s46 206 161 206c114 0 162 -107 162 -206zM294 621c0 82 -27 157 -100 157c-74 0 -100 -75 -100 -157s27 -158 100 -158s100 76 100 158z" />
    <glyph glyph-name="foursuperior" unicode="&#x2074;" 
d="M352 521h-57v-100h-60v100h-196v45l173 255h83v-251h57v-49zM235 570v198l-136 -198h136z" />
    <glyph glyph-name="fivesuperior" unicode="&#x2075;" 
d="M344 547c0 -81 -65 -133 -152 -133c-70 0 -118 25 -148 65l35 39c27 -35 65 -55 113 -55c55 0 93 36 93 82c0 50 -37 83 -91 83c-37 0 -67 -12 -95 -39l-43 16v216h261v-49h-200v-134c19 19 54 36 95 36c69 0 132 -43 132 -127z" />
    <glyph glyph-name="sixsuperior" unicode="&#x2076;" 
d="M351 546c0 -71 -58 -132 -148 -132c-118 0 -165 96 -165 207c0 112 57 206 174 206c52 0 89 -18 117 -46l-29 -42c-22 24 -46 39 -88 39c-79 0 -113 -73 -114 -146c0 -5 0 -11 1 -17c19 28 63 61 114 61c75 0 138 -44 138 -130zM290 544c0 57 -42 84 -92 84
c-37 0 -76 -22 -98 -55c4 -52 31 -110 101 -110c58 0 89 44 89 81z" />
    <glyph glyph-name="sevensuperior" unicode="&#x2077;" horiz-adv-x="362" 
d="M323 780l-166 -359h-67l166 351h-223v49h290v-41z" />
    <glyph glyph-name="eightsuperior" unicode="&#x2078;" 
d="M347 523c0 -72 -71 -109 -153 -109s-153 36 -153 109c0 53 47 91 101 104c-50 12 -94 44 -94 95c0 74 76 105 146 105s146 -31 146 -105c0 -51 -43 -83 -94 -95c54 -13 101 -51 101 -104zM280 715c0 42 -37 64 -86 64s-87 -22 -87 -64c0 -49 67 -63 87 -68
c21 5 86 19 86 68zM287 528c0 54 -71 74 -93 77c-22 -3 -94 -23 -94 -77c0 -42 44 -67 94 -67s93 25 93 67z" />
    <glyph glyph-name="ninesuperior" unicode="&#x2079;" 
d="M38 695c0 72 57 132 148 132c118 0 165 -96 165 -207c0 -112 -58 -206 -175 -206c-52 0 -89 18 -116 46l29 42c21 -24 46 -39 87 -39c77 0 113 71 114 147v16c-20 -28 -64 -61 -114 -61c-75 0 -138 44 -138 130zM98 697c0 -57 42 -84 92 -84c38 0 76 22 99 56
c-5 51 -32 109 -100 109c-60 0 -91 -44 -91 -81z" />
    <glyph glyph-name="zeroinferior" unicode="&#x2080;" 
d="M356 54c0 -99 -48 -207 -162 -207c-115 0 -161 108 -161 207s46 206 161 206c114 0 162 -107 162 -206zM294 54c0 82 -27 157 -100 157c-74 0 -100 -75 -100 -157s27 -158 100 -158s100 76 100 158z" />
    <glyph glyph-name="oneinferior" unicode="&#x2081;" horiz-adv-x="235" 
d="M175 -146h-60v322l-66 -69l-35 37l108 110h53v-400z" />
    <glyph glyph-name="twoinferior" unicode="&#x2082;" 
d="M341 -146h-291v45c153 110 229 174 229 239c0 51 -42 73 -85 73c-49 0 -91 -24 -112 -52l-33 38c33 42 91 63 147 63c73 0 143 -36 143 -118c0 -80 -83 -153 -201 -239h203v-49z" />
    <glyph glyph-name="threeinferior" unicode="&#x2083;" 
d="M343 -37c0 -68 -57 -116 -151 -116c-71 0 -124 29 -150 65l33 38c26 -33 70 -54 116 -54c57 0 92 27 92 70c0 51 -46 69 -104 69c-17 0 -34 0 -40 -1v50c7 -1 23 -1 40 -1c55 0 98 17 98 64c0 42 -41 64 -90 64c-44 0 -79 -16 -109 -48l-31 35c31 35 79 62 146 62
c84 0 143 -41 143 -107c0 -58 -50 -86 -89 -92c38 -4 96 -34 96 -98z" />
    <glyph glyph-name="fourinferior" unicode="&#x2084;" 
d="M352 -46h-57v-100h-60v100h-196v45l173 255h83v-251h57v-49zM235 3v198l-136 -198h136z" />
    <glyph glyph-name="fiveinferior" unicode="&#x2085;" 
d="M344 -20c0 -81 -65 -133 -152 -133c-70 0 -118 25 -148 65l35 39c27 -35 65 -55 113 -55c55 0 93 36 93 82c0 50 -37 83 -91 83c-37 0 -67 -12 -95 -39l-43 16v216h261v-49h-200v-134c19 19 54 36 95 36c69 0 132 -43 132 -127z" />
    <glyph glyph-name="sixinferior" unicode="&#x2086;" 
d="M351 -21c0 -71 -58 -132 -148 -132c-118 0 -165 96 -165 207c0 112 57 206 174 206c52 0 89 -18 117 -46l-29 -42c-22 24 -46 39 -88 39c-79 0 -113 -73 -114 -146c0 -5 0 -11 1 -17c19 28 63 61 114 61c75 0 138 -44 138 -130zM290 -23c0 57 -42 84 -92 84
c-37 0 -76 -22 -98 -55c4 -52 31 -110 101 -110c58 0 89 44 89 81z" />
    <glyph glyph-name="seveninferior" unicode="&#x2087;" horiz-adv-x="362" 
d="M323 213l-166 -359h-67l166 351h-223v49h290v-41z" />
    <glyph glyph-name="eightinferior" unicode="&#x2088;" 
d="M347 -44c0 -72 -71 -109 -153 -109s-153 36 -153 109c0 53 47 91 101 104c-50 12 -94 44 -94 95c0 74 76 105 146 105s146 -31 146 -105c0 -51 -43 -83 -94 -95c54 -13 101 -51 101 -104zM280 148c0 42 -37 64 -86 64s-87 -22 -87 -64c0 -49 67 -63 87 -68
c21 5 86 19 86 68zM287 -39c0 54 -71 74 -93 77c-22 -3 -94 -23 -94 -77c0 -42 44 -67 94 -67s93 25 93 67z" />
    <glyph glyph-name="nineinferior" unicode="&#x2089;" 
d="M38 128c0 72 57 132 148 132c118 0 165 -96 165 -207c0 -112 -58 -206 -175 -206c-52 0 -89 18 -116 46l29 42c21 -24 46 -39 87 -39c77 0 113 71 114 147v16c-20 -28 -64 -61 -114 -61c-75 0 -138 44 -138 130zM98 130c0 -57 42 -84 92 -84c38 0 76 22 99 56
c-5 51 -32 109 -100 109c-60 0 -91 -44 -91 -81z" />
    <glyph glyph-name="centinferior" unicode="&#xf6df;" horiz-adv-x="307" 
d="M157 -151v55c-77 10 -129 71 -129 150s52 140 129 150v44h41v-43c46 -4 75 -27 95 -53l-38 -29c-15 21 -34 34 -57 38v-214c23 4 42 17 57 38l38 -30c-20 -26 -49 -48 -95 -52v-54h-41zM85 54c0 -54 28 -94 72 -105v210c-44 -11 -72 -52 -72 -105z" />
    <glyph glyph-name="dollarinferior" unicode="&#xf6e3;" horiz-adv-x="370" 
d="M169 -206v54c-65 4 -114 29 -144 65l35 39c25 -26 63 -51 109 -57v139c-66 16 -135 35 -135 114c0 61 55 107 135 111v56h42v-57c55 -5 95 -27 122 -57l-35 -35c-22 24 -53 40 -87 45v-126c65 -16 134 -38 134 -118c0 -67 -46 -112 -134 -119v-54h-42zM284 -39
c0 37 -32 52 -73 63v-128c49 6 73 33 73 65zM95 153c0 -33 32 -47 74 -58v118c-43 -4 -74 -28 -74 -60z" />
    <glyph glyph-name="periodinferior" unicode="&#xf6e7;" horiz-adv-x="143" 
d="M109 -113c0 -20 -17 -37 -37 -37c-21 0 -38 17 -38 37s17 37 38 37c20 0 37 -17 37 -37z" />
    <glyph glyph-name="commainferior" unicode="&#xf6e1;" horiz-adv-x="139" 
d="M105 -122c0 -42 -21 -80 -51 -101c-9 8 -17 14 -26 21c18 11 39 35 41 54c-1 0 -3 -1 -4 -1c-18 0 -36 16 -36 36s17 37 38 37c22 0 38 -19 38 -46z" />
    <glyph glyph-name="notequal" unicode="&#x2260;" horiz-adv-x="499" 
d="M123 93h-54l75 118h-115v53h148l89 140h-237v53h271l75 117h55l-75 -117h115v-53h-149l-89 -140h238v-53h-272z" />
    <glyph glyph-name="infinity" unicode="&#x221e;" horiz-adv-x="656" 
d="M184 170c-108 0 -155 86 -155 165c0 81 47 166 155 166c67 0 117 -52 144 -110c27 58 77 110 145 110c108 0 154 -85 154 -166c0 -79 -46 -165 -154 -165c-68 0 -118 51 -145 110c-27 -59 -77 -110 -144 -110zM468 223c65 0 103 48 103 112c0 65 -38 113 -103 113
c-56 0 -94 -58 -115 -113c21 -55 59 -112 115 -112zM189 223c56 0 94 57 115 112c-21 56 -59 113 -115 113c-65 0 -104 -47 -104 -113c0 -64 39 -112 104 -112z" />
    <glyph glyph-name="lessequal" unicode="&#x2264;" horiz-adv-x="499" 
d="M470 99l-441 218v53l441 219v-63l-377 -183l377 -181v-63zM470 0h-441v53h441v-53z" />
    <glyph glyph-name="greaterequal" unicode="&#x2265;" horiz-adv-x="499" 
d="M470 317l-441 -218v63l376 181l-376 183v63l441 -219v-53zM469 0h-441v53h441v-53z" />
    <glyph glyph-name="partialdiff" unicode="&#x2202;" horiz-adv-x="572" 
d="M286 -12c-147 0 -239 110 -239 246s90 245 220 245c62 0 114 -22 155 -82c-39 87 -126 177 -249 237l56 47c146 -77 296 -232 296 -432c0 -151 -92 -261 -239 -261zM286 55c103 0 160 83 160 179c0 95 -57 178 -160 178s-160 -83 -160 -178c0 -96 57 -179 160 -179z" />
    <glyph glyph-name="summation" unicode="&#x2211;" horiz-adv-x="576" 
d="M386 299l-228 294h364v74h-467v-73l230 -296l-231 -314v-74h468v74h-368z" />
    <glyph glyph-name="product" unicode="&#x220f;" horiz-adv-x="708" 
d="M566 -90h-83v683h-259v-683h-83v683h-109v74h644v-74h-110v-683z" />
    <glyph glyph-name="pi" unicode="&#x3c0;" horiz-adv-x="561" 
d="M452 0h-76v433h-191v-433h-76v433h-77v67h497v-67h-77v-433z" />
    <glyph glyph-name="integral" unicode="&#x222b;" horiz-adv-x="348" 
d="M78 -100h-61v55h61c36 0 67 34 67 80v598c0 83 61 135 125 135h61v-55h-61c-36 0 -67 -32 -67 -79v-600c0 -82 -61 -134 -125 -134z" />
    <glyph glyph-name="Omega" unicode="&#x3a9;" horiz-adv-x="765" 
d="M69 0v74h135c-81 53 -153 142 -153 274c0 192 134 330 331 330c198 0 332 -138 332 -330c0 -131 -72 -221 -153 -274h135v-74h-240v74c87 22 172 114 172 260c0 147 -87 269 -246 269c-158 0 -245 -122 -245 -269c0 -146 85 -238 172 -260v-74h-240z" />
    <glyph glyph-name="Omega" unicode="&#x2126;" horiz-adv-x="765" 
d="M69 0v74h135c-81 53 -153 142 -153 274c0 192 134 330 331 330c198 0 332 -138 332 -330c0 -131 -72 -221 -153 -274h135v-74h-240v74c87 22 172 114 172 260c0 147 -87 269 -246 269c-158 0 -245 -122 -245 -269c0 -146 85 -238 172 -260v-74h-240z" />
    <glyph glyph-name="radical" unicode="&#x221a;" horiz-adv-x="725" 
d="M427 0h-58l-130 327l-155 -61l-18 50l206 79l127 -317l235 589h59z" />
    <glyph glyph-name="approxequal" unicode="&#x2248;" horiz-adv-x="499" 
d="M29 211v59c33 -23 74 -33 110 -33c97 0 109 58 220 58c37 0 79 -10 111 -27v-59c-33 23 -75 34 -111 34c-97 0 -110 -59 -220 -59c-36 0 -79 10 -110 27zM29 400v59c33 -23 74 -33 110 -33c97 0 109 58 220 58c37 0 79 -10 111 -27v-59c-33 23 -75 33 -111 33
c-97 0 -110 -58 -220 -58c-36 0 -79 10 -110 27z" />
    <glyph glyph-name="Delta" unicode="&#x394;" horiz-adv-x="658" 
d="M649 0h-640l269 667h103zM530 74l-201 508l-201 -508h402z" />
    <glyph glyph-name="Delta" unicode="&#x2206;" horiz-adv-x="658" 
d="M649 0h-640l269 667h103zM530 74l-201 508l-201 -508h402z" />
    <glyph glyph-name="nbspace" unicode="&#xa0;" horiz-adv-x="259" 
 />
    <glyph glyph-name="lozenge" unicode="&#x25ca;" horiz-adv-x="375" 
d="M198 0h-21l-158 334l158 333h21l158 -333zM188 41l132 293l-133 292l-132 -292z" />
    <glyph glyph-name="Euro" unicode="&#x20ac;" horiz-adv-x="695" 
d="M416 -12c-161 0 -292 97 -331 249h-54v52h44c-1 14 -2 29 -2 44s1 31 2 46h-44v53h55c40 150 171 246 330 246c118 0 200 -56 253 -132l-69 -39c-38 57 -108 97 -184 97c-114 0 -206 -67 -242 -172h302v-53h-314c-2 -15 -3 -30 -3 -46c0 -15 1 -30 3 -44h314v-52h-302
c35 -106 128 -175 242 -175c76 0 146 41 184 97l70 -38c-56 -77 -136 -133 -254 -133z" />
    <glyph glyph-name="uni2318" unicode="&#x2318;" horiz-adv-x="667" 
d="M226 154v74h-74c-41 0 -72 -33 -72 -74s32 -75 73 -75s73 34 73 75zM226 439v75c0 41 -31 74 -72 74s-74 -33 -74 -74s33 -75 74 -75h72zM265 265h137v137h-137v-137zM587 154c0 41 -31 74 -72 74h-74v-74c0 -41 32 -75 73 -75s73 34 73 75zM587 514c0 41 -32 74 -73 74
s-73 -33 -73 -74v-75h74c41 0 72 34 72 75zM625 154c0 -61 -50 -112 -111 -112s-112 51 -112 112v74h-137v-74c0 -61 -51 -112 -112 -112s-111 51 -111 112s50 111 111 111h73v137h-72c-61 0 -112 51 -112 112s51 111 112 111s111 -50 111 -111v-75h137v75
c0 61 51 111 112 111s111 -50 111 -111s-50 -112 -111 -112h-73v-137h73c61 0 111 -50 111 -111z" />
    <glyph glyph-name="uni2318" unicode="&#xf8ff;" horiz-adv-x="667" 
d="M226 154v74h-74c-41 0 -72 -33 -72 -74s32 -75 73 -75s73 34 73 75zM226 439v75c0 41 -31 74 -72 74s-74 -33 -74 -74s33 -75 74 -75h72zM265 265h137v137h-137v-137zM587 154c0 41 -31 74 -72 74h-74v-74c0 -41 32 -75 73 -75s73 34 73 75zM587 514c0 41 -32 74 -73 74
s-73 -33 -73 -74v-75h74c41 0 72 34 72 75zM625 154c0 -61 -50 -112 -111 -112s-112 51 -112 112v74h-137v-74c0 -61 -51 -112 -112 -112s-111 51 -111 112s50 111 111 111h73v137h-72c-61 0 -112 51 -112 112s51 111 112 111s111 -50 111 -111v-75h137v75
c0 61 51 111 112 111s111 -50 111 -111s-50 -112 -111 -112h-73v-137h73c61 0 111 -50 111 -111z" />
    <glyph glyph-name="f.alt1" horiz-adv-x="284" 
d="M171 0h-75v417h-80v66h80v37c0 100 57 157 140 157c29 0 54 -5 74 -16l-19 -57c-12 7 -25 11 -43 11c-50 0 -77 -33 -77 -95v-37h98v-66h-98v-417z" />
    <glyph glyph-name="l.alt1" horiz-adv-x="269" 
d="M182 -12c-71 0 -107 41 -107 113v566h75v-550c0 -36 16 -62 49 -62c21 0 41 10 50 21l23 -57c-20 -18 -46 -31 -90 -31z" />
    <glyph glyph-name="a.alt1" horiz-adv-x="575" 
d="M500 0h-75v72c-36 -49 -95 -84 -163 -84c-126 0 -215 96 -215 253c0 155 89 254 215 254c65 0 124 -32 163 -85v73h75v-483zM281 55c59 0 118 35 144 77v218c-26 42 -85 78 -144 78c-98 0 -156 -80 -156 -187s58 -186 156 -186z" />
    <glyph glyph-name="y.alt1" horiz-adv-x="551" 
d="M255 -196c-80 0 -136 24 -185 73l38 54c36 -45 89 -65 147 -65c91 0 146 52 146 140v72c-37 -42 -100 -80 -172 -80c-101 0 -154 49 -154 154v331h75v-308c0 -85 43 -111 109 -111c58 0 114 35 142 73v346h75v-477c0 -137 -102 -202 -221 -202z" />
    <glyph glyph-name="G.alt1" horiz-adv-x="713" 
d="M388 -13c-184 0 -337 139 -337 346c0 208 153 345 343 345c119 0 201 -52 259 -124l-66 -42c-42 54 -113 92 -193 92c-146 0 -257 -111 -257 -271c0 -158 111 -271 257 -271c137 0 208 97 224 207h-274v74h364c0 -209 -114 -356 -320 -356z" />
    <glyph glyph-name="G.smcp.alt1" horiz-adv-x="643" 
d="M338 -12c-161 0 -291 116 -291 287s130 287 294 287c97 0 170 -42 221 -101l-61 -41c-36 43 -94 73 -160 73c-121 0 -213 -91 -213 -218c0 -126 92 -218 213 -218c93 0 171 60 184 164h-207v66h291c0 -182 -108 -299 -271 -299z" />
    <glyph glyph-name="Gbreve.alt1" horiz-adv-x="742" 
d="M572 810c-40 -54 -103 -88 -175 -88c-71 0 -135 34 -176 88l38 32c31 -44 79 -72 138 -72c58 0 107 27 139 72zM388 -13c-184 0 -337 139 -337 346c0 208 153 345 343 345c119 0 201 -52 259 -124l-66 -42c-42 54 -113 92 -193 92c-146 0 -257 -111 -257 -271
c0 -158 111 -271 257 -271c137 0 208 97 224 207h-274v74h364c0 -209 -114 -356 -320 -356z" />
    <glyph glyph-name="Gbreve.smcp.alt1" horiz-adv-x="640" 
d="M518 691c-40 -54 -103 -88 -175 -88c-71 0 -135 34 -176 88l38 32c31 -44 79 -72 138 -72c58 0 107 27 139 72zM338 -12c-161 0 -291 116 -291 287s130 287 294 287c97 0 170 -42 221 -101l-61 -41c-36 43 -94 73 -160 73c-121 0 -213 -91 -213 -218
c0 -126 92 -218 213 -218c93 0 171 60 184 164h-207v66h291c0 -182 -108 -299 -271 -299z" />
    <glyph glyph-name="Gcommaaccent.alt1" horiz-adv-x="742" 
d="M449 -138c0 -54 -32 -105 -71 -134l-32 26c29 20 54 57 57 86c-1 0 -7 -1 -11 -1c-24 0 -42 18 -42 44c0 25 20 46 46 46c28 0 53 -24 53 -67zM388 -13c-184 0 -337 139 -337 346c0 208 153 345 343 345c119 0 201 -52 259 -124l-66 -42c-42 54 -113 92 -193 92
c-146 0 -257 -111 -257 -271c0 -158 111 -271 257 -271c137 0 208 97 224 207h-274v74h364c0 -209 -114 -356 -320 -356z" />
    <glyph glyph-name="Gcommaaccent.smcp.alt1" horiz-adv-x="643" 
d="M397 -138c0 -54 -32 -105 -71 -134l-32 26c29 20 54 57 57 86c-1 0 -7 -1 -11 -1c-24 0 -42 18 -42 44c0 25 20 46 46 46c28 0 53 -24 53 -67zM338 -12c-161 0 -291 116 -291 287s130 287 294 287c97 0 170 -42 221 -101l-61 -41c-36 43 -94 73 -160 73
c-121 0 -213 -91 -213 -218c0 -126 92 -218 213 -218c93 0 171 60 184 164h-207v66h291c0 -182 -108 -299 -271 -299z" />
    <glyph glyph-name="lslash.alt1" horiz-adv-x="299" 
d="M10 228v60l95 54v325h75v-282l96 55v-60l-96 -55v-208c0 -36 16 -62 49 -62c21 0 41 10 50 21l23 -57c-20 -18 -46 -31 -90 -31c-71 0 -107 41 -107 113v181z" />
    <glyph glyph-name="lacute.alt1" horiz-adv-x="269" 
d="M273 872l-169 -144h-57l148 144h78zM182 -12c-71 0 -107 41 -107 113v566h75v-550c0 -36 16 -62 49 -62c21 0 41 10 50 21l23 -57c-20 -18 -46 -31 -90 -31z" />
    <glyph glyph-name="lcommaaccent.alt1" horiz-adv-x="269" 
d="M184 -138c0 -54 -32 -105 -71 -134l-32 26c29 20 54 57 57 86c-1 0 -7 -1 -11 -1c-24 0 -42 18 -42 44c0 25 20 46 46 46c28 0 53 -24 53 -67zM182 -12c-71 0 -107 41 -107 113v566h75v-550c0 -36 16 -62 49 -62c21 0 41 10 50 21l23 -57c-20 -18 -46 -31 -90 -31z" />
    <glyph glyph-name="lcaron.alt1" horiz-adv-x="296" 
d="M314 613c0 -54 -32 -105 -71 -134l-32 26c29 20 54 57 57 86c-1 0 -7 -1 -11 -1c-24 0 -42 18 -42 44c0 25 20 46 46 46c28 0 53 -24 53 -67zM182 -12c-71 0 -107 41 -107 113v566h75v-550c0 -36 16 -62 49 -62c21 0 41 10 50 21l23 -57c-20 -18 -46 -31 -90 -31z" />
    <glyph glyph-name="aacute.alt1" horiz-adv-x="575" 
d="M454 700l-169 -144h-57l148 144h78zM500 0h-75v72c-36 -49 -95 -84 -163 -84c-126 0 -215 96 -215 253c0 155 89 254 215 254c65 0 124 -32 163 -85v73h75v-483zM281 55c59 0 118 35 144 77v218c-26 42 -85 78 -144 78c-98 0 -156 -80 -156 -187s58 -186 156 -186z" />
    <glyph glyph-name="agrave.alt1" horiz-adv-x="575" 
d="M361 556h-57l-169 144h78zM500 0h-75v72c-36 -49 -95 -84 -163 -84c-126 0 -215 96 -215 253c0 155 89 254 215 254c65 0 124 -32 163 -85v73h75v-483zM281 55c59 0 118 35 144 77v218c-26 42 -85 78 -144 78c-98 0 -156 -80 -156 -187s58 -186 156 -186z" />
    <glyph glyph-name="acircumflex.alt1" horiz-adv-x="575" 
d="M426 556h-51l-83 106l-80 -106h-51l95 144h72zM500 0h-75v72c-36 -49 -95 -84 -163 -84c-126 0 -215 96 -215 253c0 155 89 254 215 254c65 0 124 -32 163 -85v73h75v-483zM281 55c59 0 118 35 144 77v218c-26 42 -85 78 -144 78c-98 0 -156 -80 -156 -187
s58 -186 156 -186z" />
    <glyph glyph-name="adieresis.alt1" horiz-adv-x="575" 
d="M443 604c0 -25 -21 -46 -47 -46c-25 0 -46 21 -46 46c0 26 21 46 46 46c26 0 47 -20 47 -46zM236 604c0 -25 -21 -46 -46 -46c-26 0 -47 21 -47 46c0 26 21 46 47 46c25 0 46 -20 46 -46zM500 0h-75v72c-36 -49 -95 -84 -163 -84c-126 0 -215 96 -215 253
c0 155 89 254 215 254c65 0 124 -32 163 -85v73h75v-483zM281 55c59 0 118 35 144 77v218c-26 42 -85 78 -144 78c-98 0 -156 -80 -156 -187s58 -186 156 -186z" />
    <glyph glyph-name="atilde.alt1" horiz-adv-x="575" 
d="M353 554c-72 0 -75 92 -123 92c-27 0 -48 -26 -48 -86h-45c0 78 34 134 97 134c72 0 75 -92 123 -92c27 0 48 26 48 86h45c0 -78 -34 -134 -97 -134zM500 0h-75v72c-36 -49 -95 -84 -163 -84c-126 0 -215 96 -215 253c0 155 89 254 215 254c65 0 124 -32 163 -85v73h75
v-483zM281 55c59 0 118 35 144 77v218c-26 42 -85 78 -144 78c-98 0 -156 -80 -156 -187s58 -186 156 -186z" />
    <glyph glyph-name="aring.alt1" horiz-adv-x="575" 
d="M291 554c-54 0 -99 45 -99 99s45 99 99 99s97 -45 97 -99s-43 -99 -97 -99zM291 594c32 0 58 27 58 59s-26 59 -58 59c-33 0 -59 -27 -59 -59s26 -59 59 -59zM500 0h-75v72c-36 -49 -95 -84 -163 -84c-126 0 -215 96 -215 253c0 155 89 254 215 254c65 0 124 -32 163 -85
v73h75v-483zM281 55c59 0 118 35 144 77v218c-26 42 -85 78 -144 78c-98 0 -156 -80 -156 -187s58 -186 156 -186z" />
    <glyph glyph-name="amacron.alt1" horiz-adv-x="575" 
d="M476 591h-363v48h363v-48zM500 0h-75v72c-36 -49 -95 -84 -163 -84c-126 0 -215 96 -215 253c0 155 89 254 215 254c65 0 124 -32 163 -85v73h75v-483zM281 55c59 0 118 35 144 77v218c-26 42 -85 78 -144 78c-98 0 -156 -80 -156 -187s58 -186 156 -186z" />
    <glyph glyph-name="abreve.alt1" horiz-adv-x="575" 
d="M468 651c-40 -54 -103 -88 -175 -88c-71 0 -135 34 -176 88l38 32c31 -44 79 -72 138 -72c58 0 107 27 139 72zM500 0h-75v72c-36 -49 -95 -84 -163 -84c-126 0 -215 96 -215 253c0 155 89 254 215 254c65 0 124 -32 163 -85v73h75v-483zM281 55c59 0 118 35 144 77v218
c-26 42 -85 78 -144 78c-98 0 -156 -80 -156 -187s58 -186 156 -186z" />
    <glyph glyph-name="aogonek.alt1" horiz-adv-x="575" 
d="M522 -105l37 -21c-14 -32 -41 -60 -88 -60s-90 26 -90 87c0 38 20 73 53 99h-9v72c-36 -49 -95 -84 -163 -84c-126 0 -215 96 -215 253c0 155 89 254 215 254c65 0 124 -32 163 -85v73h75v-482l2 -1c-48 -24 -76 -55 -76 -97c0 -34 18 -50 45 -50s42 15 51 42zM281 55
c59 0 118 35 144 77v218c-26 42 -85 78 -144 78c-98 0 -156 -80 -156 -187s58 -186 156 -186z" />
    <glyph glyph-name="yacute.alt1" horiz-adv-x="551" 
d="M435 700l-169 -144h-57l148 144h78zM255 -196c-80 0 -136 24 -185 73l38 54c36 -45 89 -65 147 -65c91 0 146 52 146 140v72c-37 -42 -100 -80 -172 -80c-101 0 -154 49 -154 154v331h75v-308c0 -85 43 -111 109 -111c58 0 114 35 142 73v346h75v-477
c0 -137 -102 -202 -221 -202z" />
    <glyph glyph-name="ydieresis.alt1" horiz-adv-x="551" 
d="M422 604c0 -25 -21 -46 -47 -46c-25 0 -46 21 -46 46c0 26 21 46 46 46c26 0 47 -20 47 -46zM215 604c0 -25 -21 -46 -46 -46c-26 0 -47 21 -47 46c0 26 21 46 47 46c25 0 46 -20 46 -46zM255 -196c-80 0 -136 24 -185 73l38 54c36 -45 89 -65 147 -65
c91 0 146 52 146 140v72c-37 -42 -100 -80 -172 -80c-101 0 -154 49 -154 154v331h75v-308c0 -85 43 -111 109 -111c58 0 114 35 142 73v346h75v-477c0 -137 -102 -202 -221 -202z" />
    <glyph glyph-name="ae.alt1" horiz-adv-x="936" 
d="M500 0h-75v72c-36 -49 -95 -84 -163 -84c-126 0 -215 96 -215 253c0 155 89 254 215 254c65 0 124 -32 163 -85v73h75v-94c35 64 95 106 176 106c136 0 215 -114 215 -259v-19h-391c6 -91 69 -165 173 -165c56 0 111 21 150 61l36 -50c-43 -45 -102 -75 -175 -75
c-84 0 -148 39 -184 105v-93zM281 55c59 0 118 35 144 77v218c-26 42 -85 78 -144 78c-98 0 -156 -80 -156 -187s58 -186 156 -186zM817 273c-1 71 -49 160 -159 160c-103 0 -154 -87 -158 -160h317z" />
    <glyph glyph-name="zero.pzero" horiz-adv-x="612" 
d="M306 -12c-62 0 -111 21 -149 55l-27 -43h-65l54 86c-48 67 -68 160 -68 247c0 163 72 344 255 344c61 0 109 -21 147 -54l28 44h65l-54 -87c48 -67 69 -160 69 -247c0 -162 -73 -345 -255 -345zM306 62c127 0 170 138 170 271c0 61 -9 122 -31 171l-246 -394
c26 -30 61 -48 107 -48zM136 333c0 -61 9 -122 30 -171l246 394c-26 29 -61 47 -106 47c-127 0 -170 -137 -170 -270z" />
    <glyph glyph-name="Gcircumflex.alt1" horiz-adv-x="742" 
d="M526 728h-51l-83 106l-80 -106h-51l95 144h72zM388 -13c-184 0 -337 139 -337 346c0 208 153 345 343 345c119 0 201 -52 259 -124l-66 -42c-42 54 -113 92 -193 92c-146 0 -257 -111 -257 -271c0 -158 111 -271 257 -271c137 0 208 97 224 207h-274v74h364
c0 -209 -114 -356 -320 -356z" />
    <glyph glyph-name="Gdotaccent.alt1" horiz-adv-x="742" 
d="M391 727c-25 0 -47 21 -47 47s22 47 47 47c26 0 47 -21 47 -47s-21 -47 -47 -47zM388 -13c-184 0 -337 139 -337 346c0 208 153 345 343 345c119 0 201 -52 259 -124l-66 -42c-42 54 -113 92 -193 92c-146 0 -257 -111 -257 -271c0 -158 111 -271 257 -271
c137 0 208 97 224 207h-274v74h364c0 -209 -114 -356 -320 -356z" />
    <glyph glyph-name="Gcircumflex.smcp.alt1" horiz-adv-x="626" 
d="M338 -12c-161 0 -291 116 -291 287s130 287 294 287c97 0 170 -42 221 -101l-61 -41c-36 43 -94 73 -160 73c-121 0 -213 -91 -213 -218c0 -126 92 -218 213 -218c93 0 171 60 184 164h-207v66h291c0 -182 -108 -299 -271 -299zM473 606h-51l-83 106l-80 -106h-51l95 144
h72z" />
    <glyph glyph-name="Gdotaccent.smcp.alt1" horiz-adv-x="626" 
d="M338 -12c-161 0 -291 116 -291 287s130 287 294 287c97 0 170 -42 221 -101l-61 -41c-36 43 -94 73 -160 73c-121 0 -213 -91 -213 -218c0 -126 92 -218 213 -218c93 0 171 60 184 164h-207v66h291c0 -182 -108 -299 -271 -299zM343 629c-25 0 -47 21 -47 47s22 47 47 47
c26 0 47 -21 47 -47s-21 -47 -47 -47z" />
    <glyph glyph-name="aeacute.alt1" horiz-adv-x="889" 
d="M500 0h-75v72c-36 -49 -95 -84 -163 -84c-126 0 -215 96 -215 253c0 155 89 254 215 254c65 0 124 -32 163 -85v73h75v-94c35 64 95 106 176 106c136 0 215 -114 215 -259v-19h-391c6 -91 69 -165 173 -165c56 0 111 21 150 61l36 -50c-43 -45 -102 -75 -175 -75
c-84 0 -148 39 -184 105v-93zM281 55c59 0 118 35 144 77v218c-26 42 -85 78 -144 78c-98 0 -156 -80 -156 -187s58 -186 156 -186zM817 273c-1 71 -49 160 -159 160c-103 0 -154 -87 -158 -160h317zM619 700l-169 -144h-57l148 144h78z" />
    <glyph glyph-name="ycircumflex.alt1" horiz-adv-x="551" 
d="M410 556h-51l-83 106l-80 -106h-51l95 144h72zM255 -196c-80 0 -136 24 -185 73l38 54c36 -45 89 -65 147 -65c91 0 146 52 146 140v72c-37 -42 -100 -80 -172 -80c-101 0 -154 49 -154 154v331h75v-308c0 -85 43 -111 109 -111c58 0 114 35 142 73v346h75v-477
c0 -137 -102 -202 -221 -202z" />
    <glyph glyph-name="ldot.alt1" horiz-adv-x="307" 
d="M182 -12c-71 0 -107 41 -107 113v566h75v-550c0 -36 16 -62 49 -62c21 0 41 10 50 21l23 -57c-20 -18 -46 -31 -90 -31zM321 245c0 -30 -25 -55 -55 -55s-55 25 -55 55c0 29 25 54 55 54s55 -25 55 -54z" />
    <glyph glyph-name="fl.alt1" horiz-adv-x="552" 
d="M171 0h-75v417h-80v66h80v37c0 100 57 157 140 157c29 0 54 -5 74 -16l-19 -57c-12 7 -25 11 -43 11c-50 0 -77 -33 -77 -95v-37h98v-66h-98v-417zM466 -12c-71 0 -107 41 -107 113v566h75v-550c0 -36 16 -62 49 -62c21 0 41 10 50 21l23 -57c-20 -18 -46 -31 -90 -31z
" />
    <glyph glyph-name="f_f_l.alt1" horiz-adv-x="836" 
d="M171 0h-75v417h-80v66h80v37c0 99 55 157 140 157c39 0 72 -9 102 -37l-31 -48c-16 14 -35 23 -59 23c-50 0 -77 -33 -77 -95v-37h98v-66h-98v-417zM455 0h-75v417h-80v66h80v37c0 100 57 157 140 157c29 0 54 -5 74 -16l-19 -57c-12 7 -25 11 -43 11
c-50 0 -77 -33 -77 -95v-37h98v-66h-98v-417zM749 -12c-71 0 -107 41 -107 113v566h75v-550c0 -36 16 -62 49 -62c21 0 41 10 50 21l23 -57c-20 -18 -46 -31 -90 -31z" />
    <glyph glyph-name="Amacron" unicode="&#x100;" horiz-adv-x="658" 
d="M649 0h-95l-59 149h-332l-59 -149h-95l269 667h103zM471 222l-142 360l-141 -360h283zM510 749h-363v48h363v-48z" />
    <glyph glyph-name="amacron" unicode="&#x101;" horiz-adv-x="528" 
d="M452 0h-75v55c-39 -44 -95 -67 -160 -67c-81 0 -168 55 -168 160c0 109 86 159 168 159c66 0 121 -21 160 -65v87c0 64 -52 101 -122 101c-58 0 -105 -20 -148 -67l-35 52c52 54 114 80 193 80c103 0 187 -46 187 -163v-332zM245 42c52 0 103 20 132 60v92
c-29 39 -80 59 -132 59c-71 0 -120 -44 -120 -105c0 -62 49 -106 120 -106zM444 578h-363v48h363v-48z" />
    <glyph glyph-name="Abreve" unicode="&#x102;" horiz-adv-x="658" 
d="M649 0h-95l-59 149h-332l-59 -149h-95l269 667h103zM471 222l-142 360l-141 -360h283zM504 810c-40 -54 -103 -88 -175 -88c-71 0 -135 34 -176 88l38 32c31 -44 79 -72 138 -72c58 0 107 27 139 72z" />
    <glyph glyph-name="abreve" unicode="&#x103;" horiz-adv-x="528" 
d="M452 0h-75v55c-39 -44 -95 -67 -160 -67c-81 0 -168 55 -168 160c0 109 86 159 168 159c66 0 121 -21 160 -65v87c0 64 -52 101 -122 101c-58 0 -105 -20 -148 -67l-35 52c52 54 114 80 193 80c103 0 187 -46 187 -163v-332zM245 42c52 0 103 20 132 60v92
c-29 39 -80 59 -132 59c-71 0 -120 -44 -120 -105c0 -62 49 -106 120 -106zM438 651c-40 -54 -103 -88 -175 -88c-71 0 -135 34 -176 88l38 32c31 -44 79 -72 138 -72c58 0 107 27 139 72z" />
    <glyph glyph-name="Aogonek" unicode="&#x104;" horiz-adv-x="658" 
d="M668 -105l37 -21c-14 -32 -41 -60 -88 -60s-90 26 -90 87c0 38 20 73 53 99h-26l-59 149h-332l-59 -149h-95l269 667h103l268 -667h-1c-48 -24 -76 -55 -76 -97c0 -34 18 -50 45 -50s42 15 51 42zM471 222l-142 360l-141 -360h283z" />
    <glyph glyph-name="aogonek" unicode="&#x105;" horiz-adv-x="528" 
d="M472 -105l37 -21c-14 -32 -41 -60 -88 -60s-90 26 -90 87c0 38 20 73 53 99h-7v55c-39 -44 -95 -67 -160 -67c-81 0 -168 55 -168 160c0 109 86 159 168 159c66 0 121 -21 160 -65v87c0 64 -52 101 -122 101c-58 0 -105 -20 -148 -67l-35 52c52 54 114 80 193 80
c103 0 187 -46 187 -163v-332c-48 -24 -76 -55 -76 -97c0 -34 18 -50 45 -50s42 15 51 42zM245 42c52 0 103 20 132 60v92c-29 39 -80 59 -132 59c-71 0 -120 -44 -120 -105c0 -62 49 -106 120 -106z" />
    <glyph glyph-name="Cacute" unicode="&#x106;" horiz-adv-x="676" 
d="M394 -12c-192 0 -343 140 -343 345s151 345 343 345c118 0 200 -56 253 -132l-69 -39c-38 57 -108 97 -184 97c-146 0 -257 -111 -257 -271c0 -158 111 -271 257 -271c76 0 146 41 184 97l70 -38c-56 -77 -136 -133 -254 -133zM554 872l-169 -144h-57l148 144h78z" />
    <glyph glyph-name="cacute" unicode="&#x107;" horiz-adv-x="496" 
d="M288 -12c-144 0 -241 111 -241 254s97 253 241 253c88 0 140 -36 177 -84l-50 -45c-32 44 -73 62 -123 62c-102 0 -167 -79 -167 -186s65 -187 167 -187c50 0 91 20 123 63l50 -46c-37 -48 -89 -84 -177 -84zM453 700l-169 -144h-57l148 144h78z" />
    <glyph glyph-name="Ccircumflex" unicode="&#x108;" horiz-adv-x="676" 
d="M394 -12c-192 0 -343 140 -343 345s151 345 343 345c118 0 200 -56 253 -132l-69 -39c-38 57 -108 97 -184 97c-146 0 -257 -111 -257 -271c0 -158 111 -271 257 -271c76 0 146 41 184 97l70 -38c-56 -77 -136 -133 -254 -133zM527 728h-51l-83 106l-80 -106h-51l95 144
h72z" />
    <glyph glyph-name="ccircumflex" unicode="&#x109;" horiz-adv-x="496" 
d="M288 -12c-144 0 -241 111 -241 254s97 253 241 253c88 0 140 -36 177 -84l-50 -45c-32 44 -73 62 -123 62c-102 0 -167 -79 -167 -186s65 -187 167 -187c50 0 91 20 123 63l50 -46c-37 -48 -89 -84 -177 -84zM425 556h-51l-83 106l-80 -106h-51l95 144h72z" />
    <glyph glyph-name="Cdotaccent" unicode="&#x10a;" horiz-adv-x="676" 
d="M394 -12c-192 0 -343 140 -343 345s151 345 343 345c118 0 200 -56 253 -132l-69 -39c-38 57 -108 97 -184 97c-146 0 -257 -111 -257 -271c0 -158 111 -271 257 -271c76 0 146 41 184 97l70 -38c-56 -77 -136 -133 -254 -133zM396 727c-25 0 -47 21 -47 47s22 47 47 47
c26 0 47 -21 47 -47s-21 -47 -47 -47z" />
    <glyph glyph-name="cdotaccent" unicode="&#x10b;" horiz-adv-x="496" 
d="M288 -12c-144 0 -241 111 -241 254s97 253 241 253c88 0 140 -36 177 -84l-50 -45c-32 44 -73 62 -123 62c-102 0 -167 -79 -167 -186s65 -187 167 -187c50 0 91 20 123 63l50 -46c-37 -48 -89 -84 -177 -84zM290 573c-25 0 -47 21 -47 47s22 47 47 47
c26 0 47 -21 47 -47s-21 -47 -47 -47z" />
    <glyph glyph-name="Ccaron" unicode="&#x10c;" horiz-adv-x="676" 
d="M394 -12c-192 0 -343 140 -343 345s151 345 343 345c118 0 200 -56 253 -132l-69 -39c-38 57 -108 97 -184 97c-146 0 -257 -111 -257 -271c0 -158 111 -271 257 -271c76 0 146 41 184 97l70 -38c-56 -77 -136 -133 -254 -133zM432 728h-72l-98 144h51l83 -106l80 106h51
z" />
    <glyph glyph-name="ccaron" unicode="&#x10d;" horiz-adv-x="496" 
d="M288 -12c-144 0 -241 111 -241 254s97 253 241 253c88 0 140 -36 177 -84l-50 -45c-32 44 -73 62 -123 62c-102 0 -167 -79 -167 -186s65 -187 167 -187c50 0 91 20 123 63l50 -46c-37 -48 -89 -84 -177 -84zM330 556h-72l-98 144h51l83 -106l80 106h51z" />
    <glyph glyph-name="Dcaron" unicode="&#x10e;" horiz-adv-x="700" 
d="M306 0h-228v667h228c208 0 342 -145 342 -334c0 -190 -134 -333 -342 -333zM306 74c162 0 256 116 256 259c0 144 -91 260 -256 260h-145v-519h145zM389 728h-72l-98 144h51l83 -106l80 106h51z" />
    <glyph glyph-name="dcaron" unicode="&#x10f;" horiz-adv-x="644" 
d="M500 0h-75v72c-36 -49 -95 -84 -163 -84c-126 0 -215 96 -215 253c0 155 89 254 215 254c65 0 124 -32 163 -85v257h75v-667zM281 55c59 0 118 35 144 77v218c-26 42 -85 78 -144 78c-98 0 -156 -80 -156 -187s58 -186 156 -186zM648 613c0 -54 -32 -105 -71 -134l-32 26
c29 20 54 57 57 86c-1 0 -7 -1 -11 -1c-24 0 -42 18 -42 44c0 25 20 46 46 46c28 0 53 -24 53 -67z" />
    <glyph glyph-name="Dcroat" unicode="&#x110;" horiz-adv-x="728" 
d="M334 0h-228v299h-96v61h96v307h228c208 0 342 -145 342 -334c0 -190 -134 -333 -342 -333zM358 299h-169v-225h145c162 0 256 116 256 259c0 144 -91 260 -256 260h-145v-233h169v-61z" />
    <glyph glyph-name="dcroat" unicode="&#x111;" horiz-adv-x="579" 
d="M500 0h-75v72c-36 -49 -95 -84 -163 -84c-126 0 -215 96 -215 253c0 155 89 254 215 254c65 0 124 -32 163 -85v125h-157v48h157v84h75v-84h68v-48h-68v-535zM281 55c59 0 118 35 144 77v218c-26 42 -85 78 -144 78c-98 0 -156 -80 -156 -187s58 -186 156 -186z" />
    <glyph glyph-name="Emacron" unicode="&#x112;" horiz-adv-x="569" 
d="M515 0h-437v667h437v-74h-354v-215h347v-74h-347v-230h354v-74zM475 749h-363v48h363v-48z" />
    <glyph glyph-name="emacron" unicode="&#x113;" horiz-adv-x="563" 
d="M294 -12c-144 0 -247 103 -247 254c0 140 100 253 238 253c146 0 232 -114 232 -259v-19h-390c6 -91 69 -167 173 -167c56 0 111 22 150 62l36 -49c-49 -48 -114 -75 -192 -75zM443 273c-1 71 -49 160 -159 160c-103 0 -154 -87 -158 -160h317zM463 578h-363v48h363v-48z
" />
    <glyph glyph-name="Ebreve" unicode="&#x114;" horiz-adv-x="569" 
d="M515 0h-437v667h437v-74h-354v-215h347v-74h-347v-230h354v-74zM469 810c-40 -54 -103 -88 -175 -88c-71 0 -135 34 -176 88l38 32c31 -44 79 -72 138 -72c58 0 107 27 139 72z" />
    <glyph glyph-name="ebreve" unicode="&#x115;" horiz-adv-x="563" 
d="M294 -12c-144 0 -247 103 -247 254c0 140 100 253 238 253c146 0 232 -114 232 -259v-19h-390c6 -91 69 -167 173 -167c56 0 111 22 150 62l36 -49c-49 -48 -114 -75 -192 -75zM443 273c-1 71 -49 160 -159 160c-103 0 -154 -87 -158 -160h317zM463 651
c-40 -54 -103 -88 -175 -88c-71 0 -135 34 -176 88l38 32c31 -44 79 -72 138 -72c58 0 107 27 139 72z" />
    <glyph glyph-name="Edotaccent" unicode="&#x116;" horiz-adv-x="569" 
d="M515 0h-437v667h437v-74h-354v-215h347v-74h-347v-230h354v-74zM301 727c-25 0 -47 21 -47 47s22 47 47 47c26 0 47 -21 47 -47s-21 -47 -47 -47z" />
    <glyph glyph-name="edotaccent" unicode="&#x117;" horiz-adv-x="563" 
d="M294 -12c-144 0 -247 103 -247 254c0 140 100 253 238 253c146 0 232 -114 232 -259v-19h-390c6 -91 69 -167 173 -167c56 0 111 22 150 62l36 -49c-49 -48 -114 -75 -192 -75zM443 273c-1 71 -49 160 -159 160c-103 0 -154 -87 -158 -160h317zM286 573
c-25 0 -47 21 -47 47s22 47 47 47c26 0 47 -21 47 -47s-21 -47 -47 -47z" />
    <glyph glyph-name="Eogonek" unicode="&#x118;" horiz-adv-x="569" 
d="M535 -105l37 -21c-14 -32 -41 -60 -88 -60s-90 26 -90 87c0 38 20 73 53 99h-369v667h437v-74h-354v-215h347v-74h-347v-230h354v-74c-48 -24 -76 -55 -76 -97c0 -34 18 -50 45 -50s42 15 51 42z" />
    <glyph glyph-name="eogonek" unicode="&#x119;" horiz-adv-x="563" 
d="M294 -12c-144 0 -247 103 -247 254c0 140 100 253 238 253c146 0 232 -114 232 -259v-19h-390c6 -91 69 -167 173 -167c56 0 111 22 150 62l36 -49c-30 -30 -66 -51 -107 -63c-48 -24 -76 -55 -76 -97c0 -34 18 -50 45 -50s42 15 51 42l37 -21c-14 -32 -41 -60 -88 -60
s-90 26 -90 87c0 33 15 63 39 87h-3zM443 273c-1 71 -49 160 -159 160c-103 0 -154 -87 -158 -160h317z" />
    <glyph glyph-name="Ecaron" unicode="&#x11a;" horiz-adv-x="569" 
d="M515 0h-437v667h437v-74h-354v-215h347v-74h-347v-230h354v-74zM335 728h-72l-98 144h51l83 -106l80 106h51z" />
    <glyph glyph-name="ecaron" unicode="&#x11b;" horiz-adv-x="563" 
d="M294 -12c-144 0 -247 103 -247 254c0 140 100 253 238 253c146 0 232 -114 232 -259v-19h-390c6 -91 69 -167 173 -167c56 0 111 22 150 62l36 -49c-49 -48 -114 -75 -192 -75zM443 273c-1 71 -49 160 -159 160c-103 0 -154 -87 -158 -160h317zM323 556h-72l-98 144h51
l83 -106l80 106h51z" />
    <glyph glyph-name="Gcircumflex" unicode="&#x11c;" horiz-adv-x="713" 
d="M394 -13c-190 0 -343 139 -343 346c0 208 153 345 343 345c119 0 201 -52 259 -124l-66 -42c-42 54 -113 92 -193 92c-146 0 -257 -111 -257 -271c0 -158 111 -271 257 -271c80 0 146 38 180 72v135h-230v74h312v-240c-62 -70 -153 -116 -262 -116zM531 728h-51l-83 106
l-80 -106h-51l95 144h72z" />
    <glyph glyph-name="gcircumflex" unicode="&#x11d;" horiz-adv-x="575" 
d="M269 -196c-81 0 -137 16 -195 73l38 54c40 -47 88 -65 157 -65c80 0 156 39 156 141v73c-36 -49 -95 -86 -163 -86c-126 0 -215 94 -215 250c0 155 88 251 215 251c65 0 124 -32 163 -85v73h75v-476c0 -153 -113 -203 -231 -203zM281 61c59 0 117 36 144 78v212
c-27 41 -85 77 -144 77c-98 0 -156 -77 -156 -184c0 -106 58 -183 156 -183zM423 549h-51l-83 106l-80 -106h-51l95 144h72z" />
    <glyph glyph-name="Gbreve" unicode="&#x11e;" horiz-adv-x="713" 
d="M394 -13c-190 0 -343 139 -343 346c0 208 153 345 343 345c119 0 201 -52 259 -124l-66 -42c-42 54 -113 92 -193 92c-146 0 -257 -111 -257 -271c0 -158 111 -271 257 -271c80 0 146 38 180 72v135h-230v74h312v-240c-62 -70 -153 -116 -262 -116zM572 810
c-40 -54 -103 -88 -175 -88c-71 0 -135 34 -176 88l38 32c31 -44 79 -72 138 -72c58 0 107 27 139 72z" />
    <glyph glyph-name="gbreve" unicode="&#x11f;" horiz-adv-x="575" 
d="M269 -196c-81 0 -137 16 -195 73l38 54c40 -47 88 -65 157 -65c80 0 156 39 156 141v73c-36 -49 -95 -86 -163 -86c-126 0 -215 94 -215 250c0 155 88 251 215 251c65 0 124 -32 163 -85v73h75v-476c0 -153 -113 -203 -231 -203zM281 61c59 0 117 36 144 78v212
c-27 41 -85 77 -144 77c-98 0 -156 -77 -156 -184c0 -106 58 -183 156 -183zM461 651c-40 -54 -103 -88 -175 -88c-71 0 -135 34 -176 88l38 32c31 -44 79 -72 138 -72c58 0 107 27 139 72z" />
    <glyph glyph-name="Gdotaccent" unicode="&#x120;" horiz-adv-x="713" 
d="M394 -13c-190 0 -343 139 -343 346c0 208 153 345 343 345c119 0 201 -52 259 -124l-66 -42c-42 54 -113 92 -193 92c-146 0 -257 -111 -257 -271c0 -158 111 -271 257 -271c80 0 146 38 180 72v135h-230v74h312v-240c-62 -70 -153 -116 -262 -116zM396 727
c-25 0 -47 21 -47 47s22 47 47 47c26 0 47 -21 47 -47s-21 -47 -47 -47z" />
    <glyph glyph-name="gdotaccent" unicode="&#x121;" horiz-adv-x="575" 
d="M269 -196c-81 0 -137 16 -195 73l38 54c40 -47 88 -65 157 -65c80 0 156 39 156 141v73c-36 -49 -95 -86 -163 -86c-126 0 -215 94 -215 250c0 155 88 251 215 251c65 0 124 -32 163 -85v73h75v-476c0 -153 -113 -203 -231 -203zM281 61c59 0 117 36 144 78v212
c-27 41 -85 77 -144 77c-98 0 -156 -77 -156 -184c0 -106 58 -183 156 -183zM289 573c-25 0 -47 21 -47 47s22 47 47 47c26 0 47 -21 47 -47s-21 -47 -47 -47z" />
    <glyph glyph-name="Gcommaaccent" unicode="&#x122;" horiz-adv-x="713" 
d="M394 -13c-190 0 -343 139 -343 346c0 208 153 345 343 345c119 0 201 -52 259 -124l-66 -42c-42 54 -113 92 -193 92c-146 0 -257 -111 -257 -271c0 -158 111 -271 257 -271c80 0 146 38 180 72v135h-230v74h312v-240c-62 -70 -153 -116 -262 -116zM449 -138
c0 -54 -32 -105 -71 -134l-32 26c29 20 54 57 57 86c-1 0 -7 -1 -11 -1c-24 0 -42 18 -42 44c0 25 20 46 46 46c28 0 53 -24 53 -67z" />
    <glyph glyph-name="gcommaaccent" unicode="&#x123;" horiz-adv-x="575" 
d="M233 620c0 60 31 114 69 141l33 -27c-28 -18 -55 -54 -57 -83c0 0 2 1 5 1c22 0 45 -20 45 -46c0 -24 -20 -46 -47 -46c-23 0 -48 19 -48 60zM269 -196c-81 0 -137 16 -195 73l38 54c40 -47 88 -65 157 -65c80 0 156 39 156 141v73c-36 -49 -95 -86 -163 -86
c-126 0 -215 94 -215 250c0 155 88 251 215 251c65 0 124 -32 163 -85v73h75v-476c0 -153 -113 -203 -231 -203zM281 61c59 0 117 36 144 78v212c-27 41 -85 77 -144 77c-98 0 -156 -77 -156 -184c0 -106 58 -183 156 -183z" />
    <glyph glyph-name="Hcircumflex" unicode="&#x124;" horiz-adv-x="712" 
d="M634 0h-83v306h-390v-306h-83v667h83v-287h390v287h83v-667zM486 728h-51l-83 106l-80 -106h-51l95 144h72z" />
    <glyph glyph-name="hcircumflex" unicode="&#x125;" horiz-adv-x="552" 
d="M477 0h-75v318c0 86 -43 110 -109 110c-58 0 -114 -36 -142 -75v-353h-75v667h75v-254c33 41 99 82 172 82c101 0 154 -49 154 -154v-341zM247 728h-51l-83 106l-80 -106h-51l95 144h72z" />
    <glyph glyph-name="Hbar" unicode="&#x126;" horiz-adv-x="731" 
d="M644 0h-83v306h-390v-306h-83v501h-78v48h78v118h83v-118h390v118h83v-118h77v-48h-77v-501zM171 380h390v121h-390v-121z" />
    <glyph glyph-name="hbar" unicode="&#x127;" horiz-adv-x="555" 
d="M309 535h-155v-122c33 41 99 82 172 82c101 0 154 -49 154 -154v-341h-75v318c0 86 -43 110 -109 110c-58 0 -114 -36 -142 -75v-353h-75v535h-69v48h69v84h75v-84h155v-48z" />
    <glyph glyph-name="Itilde" unicode="&#x128;" horiz-adv-x="239" 
d="M161 0h-83v667h83v-667zM179 726c-72 0 -75 92 -123 92c-27 0 -48 -26 -48 -86h-45c0 78 34 134 97 134c72 0 75 -92 123 -92c27 0 48 26 48 86h45c0 -78 -34 -134 -97 -134z" />
    <glyph glyph-name="itilde" unicode="&#x129;" horiz-adv-x="225" 
d="M150 0h-75v483h75v-483zM172 541c-72 0 -75 92 -123 92c-27 0 -48 -26 -48 -86h-45c0 78 34 134 97 134c72 0 75 -92 123 -92c27 0 48 26 48 86h45c0 -78 -34 -134 -97 -134z" />
    <glyph glyph-name="Imacron" unicode="&#x12a;" horiz-adv-x="239" 
d="M161 0h-83v667h83v-667zM301 749h-363v48h363v-48z" />
    <glyph glyph-name="imacron" unicode="&#x12b;" horiz-adv-x="225" 
d="M150 0h-75v483h75v-483zM295 578h-363v48h363v-48z" />
    <glyph glyph-name="Ibreve" unicode="&#x12c;" horiz-adv-x="239" 
d="M161 0h-83v667h83v-667zM297 810c-40 -54 -103 -88 -175 -88c-71 0 -135 34 -176 88l38 32c31 -44 79 -72 138 -72c58 0 107 27 139 72z" />
    <glyph glyph-name="ibreve" unicode="&#x12d;" horiz-adv-x="225" 
d="M150 0h-75v483h75v-483zM289 651c-40 -54 -103 -88 -175 -88c-71 0 -135 34 -176 88l38 32c31 -44 79 -72 138 -72c58 0 107 27 139 72z" />
    <glyph glyph-name="Iogonek" unicode="&#x12e;" horiz-adv-x="239" 
d="M181 -105l37 -21c-14 -32 -41 -60 -88 -60s-90 26 -90 87c0 38 20 73 53 99h-15v667h83v-667c-48 -24 -76 -55 -76 -97c0 -34 18 -50 45 -50s42 15 51 42z" />
    <glyph glyph-name="iogonek" unicode="&#x12f;" horiz-adv-x="225" 
d="M170 -105l37 -21c-14 -32 -41 -60 -88 -60s-90 26 -90 87c0 38 20 73 53 99h-7v483h75v-483c-48 -24 -76 -55 -76 -97c0 -34 18 -50 45 -50s42 15 51 42zM113 552c-28 0 -51 22 -51 50s23 51 51 51s50 -23 50 -51s-22 -50 -50 -50z" />
    <glyph glyph-name="Idotaccent" unicode="&#x130;" horiz-adv-x="239" 
d="M161 0h-83v667h83v-667zM120 727c-25 0 -47 21 -47 47s22 47 47 47c26 0 47 -21 47 -47s-21 -47 -47 -47z" />
    <glyph glyph-name="IJ" unicode="&#x132;" horiz-adv-x="714" 
d="M161 0h-83v667h83v-667zM424 -12c-70 0 -128 23 -174 77l44 63c28 -35 67 -66 125 -66c82 0 134 57 134 140v465h83v-466c0 -144 -93 -213 -212 -213z" />
    <glyph glyph-name="ij" unicode="&#x133;" horiz-adv-x="451" 
d="M113 552c-28 0 -51 22 -51 50s23 51 51 51s50 -23 50 -51s-22 -50 -50 -50zM150 0h-75v483h75v-483zM338 552c-28 0 -51 22 -51 50s23 51 51 51s50 -23 50 -51s-22 -50 -50 -50zM232 -196c-49 0 -75 12 -105 36l26 56c17 -17 39 -30 69 -30c45 0 78 26 78 87v530h75v-530
c0 -95 -50 -149 -143 -149z" />
    <glyph glyph-name="Jcircumflex" unicode="&#x134;" horiz-adv-x="475" 
d="M185 -12c-70 0 -128 23 -174 77l44 63c28 -35 67 -66 125 -66c82 0 134 57 134 140v465h83v-466c0 -144 -93 -213 -212 -213zM488 728h-51l-83 106l-80 -106h-51l95 144h72z" />
    <glyph glyph-name="jcircumflex" unicode="&#x135;" horiz-adv-x="225" 
d="M7 -196c-49 0 -75 12 -105 36l26 61c17 -17 39 -30 69 -30c45 0 78 26 78 82v530h75v-530c0 -95 -50 -149 -143 -149zM247 556h-51l-83 106l-80 -106h-51l95 144h72z" />
    <glyph glyph-name="Kcommaaccent" unicode="&#x136;" horiz-adv-x="606" 
d="M585 0h-104l-253 300l-67 -76v-224h-83v667h83v-344l295 344h104l-278 -316zM360 -138c0 -54 -32 -105 -71 -134l-32 26c29 20 54 57 57 86c-1 0 -7 -1 -11 -1c-24 0 -42 18 -42 44c0 25 20 46 46 46c28 0 53 -24 53 -67z" />
    <glyph glyph-name="kcommaaccent" unicode="&#x137;" horiz-adv-x="514" 
d="M500 0h-96l-173 217l-81 -79v-138h-75v667h75v-441l254 257h95l-214 -219zM314 -138c0 -54 -32 -105 -71 -134l-32 26c29 20 54 57 57 86c-1 0 -7 -1 -11 -1c-24 0 -42 18 -42 44c0 25 20 46 46 46c28 0 53 -24 53 -67z" />
    <glyph glyph-name="kgreenlandic" unicode="&#x138;" horiz-adv-x="514" 
d="M500 0h-96l-173 217l-81 -79v-138h-75v483h75v-257l254 257h95l-214 -219z" />
    <glyph glyph-name="Lacute" unicode="&#x139;" horiz-adv-x="493" 
d="M460 0h-393v667h83v-593h310v-74zM423 872l-169 -144h-57l148 144h78z" />
    <glyph glyph-name="lacute" unicode="&#x13a;" horiz-adv-x="225" 
d="M150 0h-75v667h75v-667zM273 872l-169 -144h-57l148 144h78z" />
    <glyph glyph-name="Lcommaaccent" unicode="&#x13b;" horiz-adv-x="493" 
d="M460 0h-393v667h83v-593h310v-74zM302 -138c0 -54 -32 -105 -71 -134l-32 26c29 20 54 57 57 86c-1 0 -7 -1 -11 -1c-24 0 -42 18 -42 44c0 25 20 46 46 46c28 0 53 -24 53 -67z" />
    <glyph glyph-name="lcommaaccent" unicode="&#x13c;" horiz-adv-x="225" 
d="M150 0h-75v667h75v-667zM170 -138c0 -54 -32 -105 -71 -134l-32 26c29 20 54 57 57 86c-1 0 -7 -1 -11 -1c-24 0 -42 18 -42 44c0 25 20 46 46 46c28 0 53 -24 53 -67z" />
    <glyph glyph-name="Lcaron" unicode="&#x13d;" horiz-adv-x="493" 
d="M460 0h-393v667h83v-593h310v-74zM343 613c0 -54 -32 -105 -71 -134l-32 26c29 20 54 57 57 86c-1 0 -7 -1 -11 -1c-24 0 -42 18 -42 44c0 25 20 46 46 46c28 0 53 -24 53 -67z" />
    <glyph glyph-name="lcaron" unicode="&#x13e;" horiz-adv-x="291" 
d="M150 0h-75v667h75v-667zM311 613c0 -54 -32 -105 -71 -134l-32 26c29 20 54 57 57 86c-1 0 -7 -1 -11 -1c-24 0 -42 18 -42 44c0 25 20 46 46 46c28 0 53 -24 53 -67z" />
    <glyph glyph-name="Ldot" unicode="&#x13f;" horiz-adv-x="512" 
d="M460 0h-393v667h83v-593h310v-74zM422 342c0 -30 -25 -55 -55 -55s-55 25 -55 55c0 29 25 54 55 54s55 -25 55 -54z" />
    <glyph glyph-name="ldot" unicode="&#x140;" horiz-adv-x="307" 
d="M150 0h-75v667h75v-667zM321 245c0 -30 -25 -55 -55 -55s-55 25 -55 55c0 29 25 54 55 54s55 -25 55 -54z" />
    <glyph glyph-name="Nacute" unicode="&#x143;" horiz-adv-x="708" 
d="M630 0h-80l-389 532v-532h-83v667h85l384 -521v521h83v-667zM514 872l-169 -144h-57l148 144h78z" />
    <glyph glyph-name="nacute" unicode="&#x144;" horiz-adv-x="552" 
d="M479 0h-74v316c0 86 -44 112 -109 112c-59 0 -114 -36 -143 -75v-353h-75v483h75v-70c34 41 100 82 173 82c100 0 153 -51 153 -156v-339zM436 700l-169 -144h-57l148 144h78z" />
    <glyph glyph-name="Ncommaaccent" unicode="&#x145;" horiz-adv-x="708" 
d="M630 0h-80l-389 532v-532h-83v667h85l384 -521v521h83v-667zM411 -138c0 -54 -32 -105 -71 -134l-32 26c29 20 54 57 57 86c-1 0 -7 -1 -11 -1c-24 0 -42 18 -42 44c0 25 20 46 46 46c28 0 53 -24 53 -67z" />
    <glyph glyph-name="ncommaaccent" unicode="&#x146;" horiz-adv-x="552" 
d="M479 0h-74v316c0 86 -44 112 -109 112c-59 0 -114 -36 -143 -75v-353h-75v483h75v-70c34 41 100 82 173 82c100 0 153 -51 153 -156v-339zM333 -138c0 -54 -32 -105 -71 -134l-32 26c29 20 54 57 57 86c-1 0 -7 -1 -11 -1c-24 0 -42 18 -42 44c0 25 20 46 46 46
c28 0 53 -24 53 -67z" />
    <glyph glyph-name="Ncaron" unicode="&#x147;" horiz-adv-x="708" 
d="M630 0h-80l-389 532v-532h-83v667h85l384 -521v521h83v-667zM391 728h-72l-98 144h51l83 -106l80 106h51z" />
    <glyph glyph-name="ncaron" unicode="&#x148;" horiz-adv-x="552" 
d="M479 0h-74v316c0 86 -44 112 -109 112c-59 0 -114 -36 -143 -75v-353h-75v483h75v-70c34 41 100 82 173 82c100 0 153 -51 153 -156v-339zM313 556h-72l-98 144h51l83 -106l80 106h51z" />
    <glyph glyph-name="napostrophe" unicode="&#x149;" horiz-adv-x="552" 
d="M479 0h-74v316c0 86 -44 112 -109 112c-59 0 -114 -36 -143 -75v-353h-75v483h75v-70c34 41 100 82 173 82c100 0 153 -51 153 -156v-339zM161 676c0 -54 -32 -105 -71 -134l-32 26c29 20 54 57 57 86c-1 0 -7 -1 -11 -1c-24 0 -42 18 -42 44c0 25 20 46 46 46
c28 0 53 -24 53 -67z" />
    <glyph glyph-name="Eng" unicode="&#x14a;" horiz-adv-x="708" 
d="M418 -196c-70 0 -128 23 -174 77l44 63c28 -35 67 -66 125 -66c78 0 129 50 133 126l-385 528v-532h-83v667h85l384 -521v521h83v-652c0 -145 -93 -211 -212 -211z" />
    <glyph glyph-name="eng" unicode="&#x14b;" horiz-adv-x="552" 
d="M333 -196c-49 0 -74 12 -105 36l26 61c17 -17 39 -30 69 -30c45 0 79 26 79 82v363c0 86 -44 112 -109 112c-59 0 -114 -36 -143 -75v-353h-75v483h75v-70c34 41 100 82 173 82c100 0 153 -51 153 -156v-386c0 -95 -50 -149 -143 -149z" />
    <glyph glyph-name="Omacron" unicode="&#x14c;" horiz-adv-x="765" 
d="M382 -12c-197 0 -331 148 -331 345s134 345 331 345s332 -148 332 -345s-135 -345 -332 -345zM382 62c149 0 246 116 246 271c0 156 -97 271 -246 271c-150 0 -245 -115 -245 -271c0 -155 95 -271 245 -271zM563 749h-363v48h363v-48z" />
    <glyph glyph-name="omacron" unicode="&#x14d;" horiz-adv-x="572" 
d="M286 -12c-147 0 -239 114 -239 254s92 253 239 253s239 -113 239 -253s-92 -254 -239 -254zM286 55c103 0 160 88 160 187c0 98 -57 186 -160 186s-160 -88 -160 -186c0 -99 57 -187 160 -187zM467 578h-363v48h363v-48z" />
    <glyph glyph-name="Obreve" unicode="&#x14e;" horiz-adv-x="765" 
d="M382 -12c-197 0 -331 148 -331 345s134 345 331 345s332 -148 332 -345s-135 -345 -332 -345zM382 62c149 0 246 116 246 271c0 156 -97 271 -246 271c-150 0 -245 -115 -245 -271c0 -155 95 -271 245 -271zM557 810c-40 -54 -103 -88 -175 -88c-71 0 -135 34 -176 88
l38 32c31 -44 79 -72 138 -72c58 0 107 27 139 72z" />
    <glyph glyph-name="obreve" unicode="&#x14f;" horiz-adv-x="572" 
d="M286 -12c-147 0 -239 114 -239 254s92 253 239 253s239 -113 239 -253s-92 -254 -239 -254zM286 55c103 0 160 88 160 187c0 98 -57 186 -160 186s-160 -88 -160 -186c0 -99 57 -187 160 -187zM462 651c-40 -54 -103 -88 -175 -88c-71 0 -135 34 -176 88l38 32
c31 -44 79 -72 138 -72c58 0 107 27 139 72z" />
    <glyph glyph-name="Ohungarumlaut" unicode="&#x150;" horiz-adv-x="765" 
d="M382 -12c-197 0 -331 148 -331 345s134 345 331 345s332 -148 332 -345s-135 -345 -332 -345zM382 62c149 0 246 116 246 271c0 156 -97 271 -246 271c-150 0 -245 -115 -245 -271c0 -155 95 -271 245 -271zM435 872l-115 -144h-48l94 144h69zM577 872l-115 -144h-48
l94 144h69z" />
    <glyph glyph-name="ohungarumlaut" unicode="&#x151;" horiz-adv-x="572" 
d="M286 -12c-147 0 -239 114 -239 254s92 253 239 253s239 -113 239 -253s-92 -254 -239 -254zM286 55c103 0 160 88 160 187c0 98 -57 186 -160 186s-160 -88 -160 -186c0 -99 57 -187 160 -187zM339 700l-115 -144h-48l94 144h69zM481 700l-115 -144h-48l94 144h69z" />
    <glyph glyph-name="Racute" unicode="&#x154;" horiz-adv-x="609" 
d="M562 0h-98l-169 265h-134v-265h-83v667h268c122 0 210 -78 210 -201c0 -120 -83 -186 -174 -194zM336 338c79 0 134 53 134 128c0 76 -55 127 -134 127h-175v-255h175zM465 872l-169 -144h-57l148 144h78z" />
    <glyph glyph-name="racute" unicode="&#x155;" horiz-adv-x="330" 
d="M150 0h-75v483h75v-77c39 50 95 88 161 88v-77c-9 1 -18 2 -29 2c-47 0 -110 -38 -132 -77v-342zM352 700l-169 -144h-57l148 144h78z" />
    <glyph glyph-name="Rcommaaccent" unicode="&#x156;" horiz-adv-x="609" 
d="M562 0h-98l-169 265h-134v-265h-83v667h268c122 0 210 -78 210 -201c0 -120 -83 -186 -174 -194zM336 338c79 0 134 53 134 128c0 76 -55 127 -134 127h-175v-255h175zM362 -138c0 -54 -32 -105 -71 -134l-32 26c29 20 54 57 57 86c-1 0 -7 -1 -11 -1
c-24 0 -42 18 -42 44c0 25 20 46 46 46c28 0 53 -24 53 -67z" />
    <glyph glyph-name="rcommaaccent" unicode="&#x157;" horiz-adv-x="330" 
d="M150 0h-75v483h75v-77c39 50 95 88 161 88v-77c-9 1 -18 2 -29 2c-47 0 -110 -38 -132 -77v-342zM222 -138c0 -54 -32 -105 -71 -134l-32 26c29 20 54 57 57 86c-1 0 -7 -1 -11 -1c-24 0 -42 18 -42 44c0 25 20 46 46 46c28 0 53 -24 53 -67z" />
    <glyph glyph-name="Rcaron" unicode="&#x158;" horiz-adv-x="609" 
d="M562 0h-98l-169 265h-134v-265h-83v667h268c122 0 210 -78 210 -201c0 -120 -83 -186 -174 -194zM336 338c79 0 134 53 134 128c0 76 -55 127 -134 127h-175v-255h175zM343 728h-72l-98 144h51l83 -106l80 106h51z" />
    <glyph glyph-name="rcaron" unicode="&#x159;" horiz-adv-x="330" 
d="M150 0h-75v483h75v-77c39 50 95 88 161 88v-77c-9 1 -18 2 -29 2c-47 0 -110 -38 -132 -77v-342zM229 556h-72l-98 144h51l83 -106l80 106h51z" />
    <glyph glyph-name="Sacute" unicode="&#x15a;" horiz-adv-x="586" 
d="M294 -12c-115 0 -201 44 -256 106l50 64c43 -50 115 -96 209 -96c119 0 157 64 157 116c0 172 -395 76 -395 314c0 110 98 186 230 186c101 0 180 -35 236 -94l-50 -61c-50 56 -120 80 -193 80c-79 0 -137 -43 -137 -106c0 -150 395 -64 395 -313
c0 -96 -66 -196 -246 -196zM452 872l-169 -144h-57l148 144h78z" />
    <glyph glyph-name="sacute" unicode="&#x15b;" horiz-adv-x="465" 
d="M229 -12c-80 0 -146 25 -195 76l38 54c32 -37 93 -69 159 -69c74 0 115 35 115 83c0 117 -299 45 -299 224c0 76 64 139 179 139c83 0 141 -31 179 -70l-35 -52c-29 35 -81 61 -144 61c-66 0 -107 -33 -107 -76c0 -105 299 -36 299 -224c0 -81 -65 -146 -189 -146z
M393 700l-169 -144h-57l148 144h78z" />
    <glyph glyph-name="Scircumflex" unicode="&#x15c;" horiz-adv-x="586" 
d="M418 728h-51l-83 106l-80 -106h-51l95 144h72zM294 -12c-115 0 -201 44 -256 106l50 64c43 -50 115 -96 209 -96c119 0 157 64 157 116c0 172 -395 76 -395 314c0 110 98 186 230 186c101 0 180 -35 236 -94l-50 -61c-50 56 -120 80 -193 80c-79 0 -137 -43 -137 -106
c0 -150 395 -64 395 -313c0 -96 -66 -196 -246 -196z" />
    <glyph glyph-name="scircumflex" unicode="&#x15d;" horiz-adv-x="465" 
d="M229 -12c-80 0 -146 25 -195 76l38 54c32 -37 93 -69 159 -69c74 0 115 35 115 83c0 117 -299 45 -299 224c0 76 64 139 179 139c83 0 141 -31 179 -70l-35 -52c-29 35 -81 61 -144 61c-66 0 -107 -33 -107 -76c0 -105 299 -36 299 -224c0 -81 -65 -146 -189 -146z
M361 556h-51l-83 106l-80 -106h-51l95 144h72z" />
    <glyph glyph-name="Scedilla" unicode="&#x15e;" horiz-adv-x="586" 
d="M288 -191c-43 0 -81 14 -101 30l19 38c25 -20 53 -29 80 -29c33 0 61 15 61 42c0 21 -12 35 -37 35c-14 0 -29 -6 -38 -17l-33 19l23 62c-99 8 -174 49 -224 105l50 64c43 -50 115 -96 209 -96c119 0 157 64 157 116c0 172 -395 76 -395 314c0 110 98 186 230 186
c101 0 180 -35 236 -94l-50 -61c-50 56 -120 80 -193 80c-79 0 -137 -43 -137 -106c0 -150 395 -64 395 -313c0 -94 -63 -191 -234 -196l-17 -43c10 8 24 11 37 11c38 0 66 -26 66 -67c0 -49 -46 -80 -104 -80z" />
    <glyph glyph-name="scedilla" unicode="&#x15f;" horiz-adv-x="465" 
d="M228 -191c-43 0 -81 14 -101 30l19 38c25 -20 53 -29 80 -29c33 0 61 15 61 42c0 21 -12 35 -37 35c-14 0 -29 -6 -38 -17l-33 19l23 62c-68 5 -125 30 -168 75l38 54c32 -37 93 -69 159 -69c74 0 115 35 115 83c0 117 -299 45 -299 224c0 76 64 139 179 139
c83 0 141 -31 179 -70l-35 -52c-29 35 -81 61 -144 61c-66 0 -107 -33 -107 -76c0 -105 299 -36 299 -224c0 -77 -59 -140 -172 -145l-17 -44c10 8 24 11 37 11c38 0 66 -26 66 -67c0 -49 -46 -80 -104 -80z" />
    <glyph glyph-name="Tcommaaccent" unicode="&#x162;" horiz-adv-x="570" 
d="M326 0h-83v593h-211v74h506v-74h-212v-593zM342 -138c0 -54 -32 -105 -71 -134l-32 26c29 20 54 57 57 86c-1 0 -7 -1 -11 -1c-24 0 -42 18 -42 44c0 25 20 46 46 46c28 0 53 -24 53 -67z" />
    <glyph glyph-name="Tcommaaccent" unicode="&#x21a;" horiz-adv-x="570" 
d="M326 0h-83v593h-211v74h506v-74h-212v-593zM342 -138c0 -54 -32 -105 -71 -134l-32 26c29 20 54 57 57 86c-1 0 -7 -1 -11 -1c-24 0 -42 18 -42 44c0 25 20 46 46 46c28 0 53 -24 53 -67z" />
    <glyph glyph-name="tcommaaccent" unicode="&#x163;" horiz-adv-x="294" 
d="M198 -12c-72 0 -108 41 -108 113v316h-80v66h80v132h76v-132h98v-66h-98v-300c0 -36 16 -62 48 -62c22 0 41 10 51 21l22 -57c-19 -18 -46 -31 -89 -31zM204 -138c0 -54 -32 -105 -71 -134l-32 26c29 20 54 57 57 86c-1 0 -7 -1 -11 -1c-24 0 -42 18 -42 44
c0 25 20 46 46 46c28 0 53 -24 53 -67z" />
    <glyph glyph-name="tcommaaccent" unicode="&#x21b;" horiz-adv-x="294" 
d="M198 -12c-72 0 -108 41 -108 113v316h-80v66h80v132h76v-132h98v-66h-98v-300c0 -36 16 -62 48 -62c22 0 41 10 51 21l22 -57c-19 -18 -46 -31 -89 -31zM204 -138c0 -54 -32 -105 -71 -134l-32 26c29 20 54 57 57 86c-1 0 -7 -1 -11 -1c-24 0 -42 18 -42 44
c0 25 20 46 46 46c28 0 53 -24 53 -67z" />
    <glyph glyph-name="Tcaron" unicode="&#x164;" horiz-adv-x="570" 
d="M326 0h-83v593h-211v74h506v-74h-212v-593zM322 728h-72l-98 144h51l83 -106l80 106h51z" />
    <glyph glyph-name="tcaron" unicode="&#x165;" horiz-adv-x="313" 
d="M198 -12c-72 0 -108 41 -108 113v316h-80v66h80v132h76v-132h98v-66h-98v-300c0 -36 16 -62 48 -62c22 0 41 10 51 21l22 -57c-19 -18 -46 -31 -89 -31zM325 676c0 -54 -32 -105 -71 -134l-32 26c29 20 54 57 57 86c-1 0 -7 -1 -11 -1c-24 0 -42 18 -42 44
c0 25 20 46 46 46c28 0 53 -24 53 -67z" />
    <glyph glyph-name="Tbar" unicode="&#x166;" horiz-adv-x="570" 
d="M326 0h-83v294h-150v48h150v251h-211v74h506v-74h-212v-251h152v-48h-152v-294z" />
    <glyph glyph-name="tbar" unicode="&#x167;" horiz-adv-x="294" 
d="M235 227h-69v-110c0 -36 16 -62 48 -62c22 0 41 10 51 21l22 -57c-19 -18 -46 -31 -89 -31c-72 0 -108 41 -108 113v126h-80v48h80v142h-80v66h80v132h76v-132h98v-66h-98v-142h69v-48z" />
    <glyph glyph-name="Utilde" unicode="&#x168;" horiz-adv-x="701" 
d="M350 -12c-180 0 -272 107 -272 271v408h84v-406c0 -122 65 -199 188 -199s189 77 189 199v406h84v-407c0 -166 -92 -272 -273 -272zM412 726c-72 0 -75 92 -123 92c-27 0 -48 -26 -48 -86h-45c0 78 34 134 97 134c72 0 75 -92 123 -92c27 0 48 26 48 86h45
c0 -78 -34 -134 -97 -134z" />
    <glyph glyph-name="utilde" unicode="&#x169;" horiz-adv-x="551" 
d="M476 0h-75v68c-37 -42 -100 -80 -172 -80c-101 0 -154 50 -154 154v341h75v-318c0 -85 43 -110 109 -110c58 0 114 34 142 73v355h75v-483zM335 554c-72 0 -75 92 -123 92c-27 0 -48 -26 -48 -86h-45c0 78 34 134 97 134c72 0 75 -92 123 -92c27 0 48 26 48 86h45
c0 -78 -34 -134 -97 -134z" />
    <glyph glyph-name="Umacron" unicode="&#x16a;" horiz-adv-x="701" 
d="M350 -12c-180 0 -272 107 -272 271v408h84v-406c0 -122 65 -199 188 -199s189 77 189 199v406h84v-407c0 -166 -92 -272 -273 -272zM532 749h-363v48h363v-48z" />
    <glyph glyph-name="umacron" unicode="&#x16b;" horiz-adv-x="551" 
d="M476 0h-75v68c-37 -42 -100 -80 -172 -80c-101 0 -154 50 -154 154v341h75v-318c0 -85 43 -110 109 -110c58 0 114 34 142 73v355h75v-483zM457 578h-363v48h363v-48z" />
    <glyph glyph-name="Ubreve" unicode="&#x16c;" horiz-adv-x="701" 
d="M350 -12c-180 0 -272 107 -272 271v408h84v-406c0 -122 65 -199 188 -199s189 77 189 199v406h84v-407c0 -166 -92 -272 -273 -272zM529 810c-40 -54 -103 -88 -175 -88c-71 0 -135 34 -176 88l38 32c31 -44 79 -72 138 -72c58 0 107 27 139 72z" />
    <glyph glyph-name="ubreve" unicode="&#x16d;" horiz-adv-x="551" 
d="M476 0h-75v68c-37 -42 -100 -80 -172 -80c-101 0 -154 50 -154 154v341h75v-318c0 -85 43 -110 109 -110c58 0 114 34 142 73v355h75v-483zM453 651c-40 -54 -103 -88 -175 -88c-71 0 -135 34 -176 88l38 32c31 -44 79 -72 138 -72c58 0 107 27 139 72z" />
    <glyph glyph-name="Uring" unicode="&#x16e;" horiz-adv-x="701" 
d="M350 -12c-180 0 -272 107 -272 271v408h84v-406c0 -122 65 -199 188 -199s189 77 189 199v406h84v-407c0 -166 -92 -272 -273 -272zM352 692c-54 0 -99 45 -99 99s45 99 99 99s97 -45 97 -99s-43 -99 -97 -99zM352 732c32 0 58 27 58 59s-26 59 -58 59
c-33 0 -59 -27 -59 -59s26 -59 59 -59z" />
    <glyph glyph-name="uring" unicode="&#x16f;" horiz-adv-x="551" 
d="M476 0h-75v68c-37 -42 -100 -80 -172 -80c-101 0 -154 50 -154 154v341h75v-318c0 -85 43 -110 109 -110c58 0 114 34 142 73v355h75v-483zM276 552c-54 0 -99 45 -99 99s45 99 99 99s97 -45 97 -99s-43 -99 -97 -99zM276 592c32 0 58 27 58 59s-26 59 -58 59
c-33 0 -59 -27 -59 -59s26 -59 59 -59z" />
    <glyph glyph-name="Uhungarumlaut" unicode="&#x170;" horiz-adv-x="701" 
d="M350 -12c-180 0 -272 107 -272 271v408h84v-406c0 -122 65 -199 188 -199s189 77 189 199v406h84v-407c0 -166 -92 -272 -273 -272zM404 872l-115 -144h-48l94 144h69zM546 872l-115 -144h-48l94 144h69z" />
    <glyph glyph-name="uhungarumlaut" unicode="&#x171;" horiz-adv-x="551" 
d="M476 0h-75v68c-37 -42 -100 -80 -172 -80c-101 0 -154 50 -154 154v341h75v-318c0 -85 43 -110 109 -110c58 0 114 34 142 73v355h75v-483zM329 700l-115 -144h-48l94 144h69zM471 700l-115 -144h-48l94 144h69z" />
    <glyph glyph-name="Uogonek" unicode="&#x172;" horiz-adv-x="701" 
d="M466 -105l37 -21c-14 -32 -41 -60 -88 -60s-90 26 -90 87c0 33 15 63 39 87h-14c-180 0 -272 107 -272 271v408h84v-406c0 -122 65 -199 188 -199s189 77 189 199v406h84v-407c0 -134 -60 -228 -177 -260c-48 -24 -76 -55 -76 -97c0 -34 18 -50 45 -50s42 15 51 42z" />
    <glyph glyph-name="uogonek" unicode="&#x173;" horiz-adv-x="551" 
d="M496 -105l37 -21c-14 -32 -41 -60 -88 -60s-90 26 -90 87c0 38 20 73 53 99h-7v68c-37 -42 -100 -80 -172 -80c-101 0 -154 50 -154 154v341h75v-318c0 -85 43 -110 109 -110c58 0 114 34 142 73v355h75v-483c-48 -24 -76 -55 -76 -97c0 -34 18 -50 45 -50s42 15 51 42z
" />
    <glyph glyph-name="Wcircumflex" unicode="&#x174;" horiz-adv-x="883" 
d="M678 0h-90l-147 538l-147 -538h-90l-190 667h92l148 -556l153 556h69l153 -556l147 556h93zM574 728h-51l-83 106l-80 -106h-51l95 144h72z" />
    <glyph glyph-name="wcircumflex" unicode="&#x175;" horiz-adv-x="734" 
d="M569 0h-76l-126 388l-126 -388h-75l-154 483h78l118 -385l127 385h65l126 -385l118 385h79zM500 556h-51l-83 106l-80 -106h-51l95 144h72z" />
    <glyph glyph-name="Ycircumflex" unicode="&#x176;" horiz-adv-x="626" 
d="M447 728h-51l-83 106l-80 -106h-51l95 144h72zM355 0h-83v282l-263 385h97l207 -310l207 310h97l-262 -385v-282z" />
    <glyph glyph-name="ycircumflex" unicode="&#x177;" horiz-adv-x="490" 
d="M49 -189l11 68c11 -5 29 -8 41 -8c33 0 55 11 72 51l32 73l-202 488h82l160 -396l161 396h81l-242 -581c-29 -70 -78 -97 -142 -98c-16 0 -41 3 -54 7zM378 556h-51l-83 106l-80 -106h-51l95 144h72z" />
    <glyph glyph-name="Zacute" unicode="&#x179;" horiz-adv-x="585" 
d="M537 0h-489v69l375 524h-375v74h482v-69l-376 -524h383v-74zM452 872l-169 -144h-57l148 144h78z" />
    <glyph glyph-name="zacute" unicode="&#x17a;" horiz-adv-x="472" 
d="M420 0h-368v59l266 358h-266v66h364v-57l-268 -360h272v-66zM395 700l-169 -144h-57l148 144h78z" />
    <glyph glyph-name="Zdotaccent" unicode="&#x17b;" horiz-adv-x="585" 
d="M537 0h-489v69l375 524h-375v74h482v-69l-376 -524h383v-74zM290 727c-25 0 -47 21 -47 47s22 47 47 47c26 0 47 -21 47 -47s-21 -47 -47 -47z" />
    <glyph glyph-name="zdotaccent" unicode="&#x17c;" horiz-adv-x="472" 
d="M420 0h-368v59l266 358h-266v66h364v-57l-268 -360h272v-66zM235 573c-25 0 -47 21 -47 47s22 47 47 47c26 0 47 -21 47 -47s-21 -47 -47 -47z" />
    <glyph glyph-name="longs" unicode="&#x17f;" horiz-adv-x="284" 
d="M171 0h-75v417h-80v66h80v37c0 99 55 157 140 157c39 0 72 -9 102 -37l-31 -48c-16 14 -35 23 -59 23c-50 0 -77 -33 -77 -95v-520z" />
    <glyph glyph-name="AEacute" unicode="&#x1fc;" horiz-adv-x="948" 
d="M893 0h-437v149h-262l-92 -149h-95l416 667h470v-74h-354v-215h347v-74h-347v-230h354v-74zM456 222v360l-222 -360h222zM655 872l-169 -144h-57l148 144h78z" />
    <glyph glyph-name="aeacute" unicode="&#x1fd;" horiz-adv-x="889" 
d="M843 217h-390c6 -91 69 -165 173 -165c56 0 111 21 150 61l36 -50c-49 -48 -114 -75 -192 -75c-94 0 -159 43 -200 100c-34 -48 -97 -100 -199 -100c-85 0 -172 55 -172 160s81 159 168 159c65 0 120 -20 160 -64v86c0 64 -52 101 -122 101c-58 0 -105 -20 -148 -67
l-35 52c52 54 114 80 193 80c90 0 148 -36 164 -106c33 58 93 106 185 106c143 0 229 -114 229 -259v-19zM452 273h317c-1 71 -49 160 -159 160c-103 0 -154 -87 -158 -160zM392 127c-6 14 -15 42 -15 65c-29 40 -80 61 -132 61c-71 0 -120 -44 -120 -105
c0 -62 49 -106 120 -106c52 0 111 20 147 85zM588 700l-169 -144h-57l148 144h78z" />
    <glyph glyph-name="Oslashacute" unicode="&#x1fe;" horiz-adv-x="765" 
d="M544 872l-169 -144h-57l148 144h78zM382 -12c-65 0 -123 16 -172 45l-22 -33h-67l44 65c-72 62 -114 157 -114 268c0 197 134 345 331 345c63 0 119 -15 167 -42l21 31h67l-42 -63c74 -62 119 -159 119 -271c0 -197 -135 -345 -332 -345zM382 62c149 0 246 116 246 271
c0 84 -28 156 -78 205l-297 -441c36 -23 79 -35 129 -35zM137 333c0 -82 26 -152 73 -201l296 440c-35 20 -77 32 -124 32c-150 0 -245 -115 -245 -271z" />
    <glyph glyph-name="oslashacute" unicode="&#x1ff;" horiz-adv-x="572" 
d="M446 700l-169 -144h-57l148 144h78zM118 0h-54l48 61c-42 46 -65 110 -65 181c0 140 92 253 239 253c53 0 100 -15 137 -41l23 29h55l-45 -57c44 -46 69 -112 69 -184c0 -140 -92 -254 -239 -254c-56 0 -104 16 -142 45zM286 55c103 0 160 88 160 187
c0 46 -13 91 -38 124l-220 -277c26 -22 58 -34 98 -34zM126 242c0 -45 11 -88 34 -121l218 277c-24 19 -55 30 -92 30c-103 0 -160 -88 -160 -186z" />
    <glyph glyph-name="Scommaaccent" unicode="&#x218;" horiz-adv-x="593" 
d="M299 -12c-115 0 -201 44 -256 106l50 64c43 -50 115 -96 209 -96c119 0 157 64 157 116c0 172 -395 76 -395 314c0 110 98 186 230 186c101 0 180 -35 236 -94l-50 -61c-50 56 -120 80 -193 80c-79 0 -137 -43 -137 -106c0 -150 395 -64 395 -313
c0 -96 -66 -196 -246 -196zM350 -138c0 -54 -32 -105 -71 -134l-32 26c29 20 54 57 57 86c-1 0 -7 -1 -11 -1c-24 0 -42 18 -42 44c0 25 20 46 46 46c28 0 53 -24 53 -67z" />
    <glyph glyph-name="scommaaccent" unicode="&#x219;" horiz-adv-x="468" 
d="M229 -12c-80 0 -146 25 -195 76l38 54c32 -37 93 -69 159 -69c74 0 115 35 115 83c0 117 -299 45 -299 224c0 76 64 139 179 139c83 0 141 -31 179 -70l-35 -52c-29 35 -81 61 -144 61c-66 0 -107 -33 -107 -76c0 -105 299 -36 299 -224c0 -81 -65 -146 -189 -146z
M291 -138c0 -54 -32 -105 -71 -134l-32 26c29 20 54 57 57 86c-1 0 -7 -1 -11 -1c-24 0 -42 18 -42 44c0 25 20 46 46 46c28 0 53 -24 53 -67z" />
    <glyph glyph-name="hsuperior" unicode="&#x2b0;" horiz-adv-x="398" 
d="M338 326h-58v202c0 56 -28 72 -71 72c-38 0 -73 -23 -91 -46v-228h-58v434h58v-164c22 25 65 52 115 52c69 0 105 -34 105 -106v-216z" />
    <glyph glyph-name="hsuperior" unicode="&#xf637;" horiz-adv-x="398" 
d="M338 326h-58v202c0 56 -28 72 -71 72c-38 0 -73 -23 -91 -46v-228h-58v434h58v-164c22 25 65 52 115 52c69 0 105 -34 105 -106v-216z" />
    <glyph glyph-name="frenchfranc" unicode="&#x20a3;" horiz-adv-x="561" 
d="M171 0h-83v137h-78v48h78v482h437v-74h-354v-215h347v-74h-347v-119h202v-48h-202v-137z" />
    <glyph glyph-name="lira" unicode="&#x20a4;" horiz-adv-x="518" 
d="M20 328v46h63c-20 28 -35 61 -35 106c0 111 103 197 224 197c91 0 165 -41 202 -112l-67 -40c-17 43 -66 82 -127 82c-76 0 -142 -48 -142 -128c0 -45 17 -77 39 -105h191v-46h-154c15 -21 29 -43 35 -70h119v-46h-116c-4 -54 -37 -92 -75 -119c15 5 34 9 52 9
c64 0 92 -41 148 -41c44 0 82 22 95 40l36 -67c-28 -27 -72 -47 -135 -47c-90 0 -104 46 -179 46c-34 0 -76 -18 -118 -40l-29 63c85 37 132 92 132 152v4h-159v46h149c-11 26 -30 47 -49 70h-100z" />
    <glyph glyph-name="uni20A6" unicode="&#x20a6;" horiz-adv-x="729" 
d="M640 0h-80l-177 242h-212v-242h-83v242h-78v48h78v94h-78v48h78v235h85l173 -235h211v235h83v-235h78v-48h-78v-94h78v-48h-78v-242zM171 384v-94h177l-69 94h-108zM381 384l70 -94h106v94h-176zM171 532v-100h73zM486 242l71 -96v96h-71z" />
    <glyph glyph-name="peseta" unicode="&#x20a7;" horiz-adv-x="640" 
d="M635 441h-72c-11 -98 -85 -176 -207 -176h-185v-265h-83v441h-78v52h78v174h268c122 0 196 -78 207 -174h72v-52zM346 339c70 0 120 40 131 102h-306v-102h175zM171 593v-100h305c-11 60 -61 100 -130 100h-175z" />
    <glyph glyph-name="rupee" unicode="&#x20a8;" horiz-adv-x="1019" 
d="M562 0h-98l-169 265h-134v-265h-83v667h268c122 0 210 -78 210 -201c0 -120 -83 -186 -174 -194zM336 338c79 0 134 53 134 128c0 76 -55 127 -134 127h-175v-255h175zM783 -12c-80 0 -146 25 -195 76l38 54c32 -37 93 -69 159 -69c74 0 115 35 115 83
c0 117 -299 45 -299 224c0 76 64 139 179 139c83 0 141 -31 179 -70l-35 -52c-29 35 -81 61 -144 61c-66 0 -107 -33 -107 -76c0 -105 299 -36 299 -224c0 -81 -65 -146 -189 -146z" />
    <glyph glyph-name="uni20A9" unicode="&#x20a9;" horiz-adv-x="883" 
d="M678 0h-90l-67 242h-161l-66 -242h-90l-69 242h-115v48h101l-27 94h-74v48h61l-67 235h92l62 -235h174l65 235h69l64 -235h173l63 235h93l-68 -235h61v-48h-74l-27 -94h101v-48h-115zM181 384l25 -94h97l26 94h-148zM553 384l26 -94h97l25 94h-148zM399 384l-26 -94h135
l-25 94h-84zM219 242l35 -131l36 131h-71zM593 242l36 -131l34 131h-70zM441 538l-29 -106h58z" />
    <glyph glyph-name="afii57636" unicode="&#x20aa;" horiz-adv-x="821" 
d="M323 550c157 0 225 -76 225 -212v-176h-73v171c0 100 -48 151 -152 151h-175v-484h-73v550h248zM521 0h-248v387h73v-321h175c104 0 152 51 152 151v333h73v-338c0 -136 -68 -212 -225 -212z" />
    <glyph glyph-name="afii61289" unicode="&#x2113;" horiz-adv-x="475" 
d="M76 505v-404c0 -81 44 -113 107 -113c35 0 67 9 89 31l-22 51c-14 -13 -32 -21 -51 -21c-33 0 -48 27 -48 63v169l170 114c63 43 121 90 121 156c0 73 -77 126 -176 126c-113 0 -190 -76 -190 -172zM293 451l-142 -95v148c0 73 50 117 114 117c53 0 105 -28 105 -73
c0 -39 -29 -64 -77 -97z" />
    <glyph glyph-name="afii61352" unicode="&#x2116;" horiz-adv-x="1113" 
d="M630 0h-80l-389 532v-532h-83v667h85l384 -521v521h83v-667zM910 350c-99 0 -162 75 -162 165c0 91 63 165 162 165c101 0 163 -74 163 -165c0 -90 -62 -165 -163 -165zM910 398c66 0 104 52 104 117s-38 116 -104 116c-65 0 -102 -51 -102 -116s37 -117 102 -117z" />
    <glyph glyph-name="published" unicode="&#x2117;" horiz-adv-x="778" 
d="M734 334c0 -190 -155 -345 -345 -345s-345 155 -345 345s155 345 345 345s345 -155 345 -345zM703 334c0 172 -142 314 -314 314s-314 -142 -314 -314s142 -314 314 -314s314 142 314 314zM550 419c0 -71 -58 -114 -126 -114h-112v-174h-37v405h149
c67 0 126 -43 126 -117zM512 419c0 51 -37 82 -88 82h-112v-162h112c51 0 88 31 88 80z" />
    <glyph glyph-name="servicemark" unicode="&#x2120;" horiz-adv-x="476" 
d="M439 447h-28v182l-75 -182h-8l-75 182v-182h-28v220h43l64 -160l64 160h43v-220zM188 506c0 -41 -30 -67 -87 -67c-39 0 -68 15 -86 36l18 21c15 -17 39 -32 67 -32c38 0 55 17 55 39c0 59 -136 26 -136 107c0 37 34 63 80 63c39 0 65 -12 82 -32l-18 -19
c-15 18 -38 27 -63 27c-28 0 -48 -15 -48 -36c0 -53 136 -22 136 -107z" />
    <glyph glyph-name="estimated" unicode="&#x212e;" horiz-adv-x="842" 
d="M811 324h-632c-3 0 -5 -2 -5 -5v-190c0 -9 3 -17 9 -23c60 -63 146 -103 240 -103c101 0 189 44 250 115h57c-71 -83 -183 -136 -309 -136c-215 0 -390 157 -390 351s175 351 390 351s390 -157 390 -351v-9zM668 349v191c0 9 -4 18 -10 24c-60 61 -143 99 -235 99
c-94 0 -179 -40 -239 -102c-6 -6 -10 -15 -10 -24v-188c0 -3 2 -6 5 -6h485c3 0 4 3 4 6z" />
    <glyph glyph-name="arrowleft" unicode="&#x2190;" horiz-adv-x="582" 
d="M538 211h-269l12 -130l-281 205l281 204l-12 -129h269v-150z" />
    <glyph glyph-name="arrowup" unicode="&#x2191;" horiz-adv-x="582" 
d="M216 17v269l-130 -12l205 281l204 -281l-129 12v-269h-150z" />
    <glyph glyph-name="arrowright" unicode="&#x2192;" horiz-adv-x="582" 
d="M584 286l-281 -205l12 130h-268v150h268l-12 129z" />
    <glyph glyph-name="arrowdown" unicode="&#x2193;" horiz-adv-x="582" 
d="M366 555v-269l130 12l-205 -281l-204 281l129 -12v269h150z" />
    <glyph glyph-name="triangleright" unicode="&#x22b2;" horiz-adv-x="587" 
d="M589 286l-535 -309v618z" />
    <glyph glyph-name="triangleleft" unicode="&#x22b3;" horiz-adv-x="587" 
d="M535 595v-618l-535 309z" />
    <glyph glyph-name="blacksquare" unicode="&#x25a0;" horiz-adv-x="661" 
d="M618 0h-571v572h571v-572z" />
    <glyph glyph-name="triagup" unicode="&#x25b2;" horiz-adv-x="616" 
d="M617 29l-619 1l309 535z" />
    <glyph glyph-name="triagdn" unicode="&#x25bc;" horiz-adv-x="616" 
d="M617 510l-310 -535l-309 535h619z" />
    <glyph glyph-name="circlesolid" unicode="&#x25cf;" horiz-adv-x="695" 
d="M644 285c0 -164 -133 -297 -297 -297s-297 133 -297 297s133 297 297 297s297 -133 297 -297z" />
    <glyph glyph-name="blackstar" unicode="&#x2605;" horiz-adv-x="759" 
d="M759 421l-235 -171l90 -275l-235 170l-234 -170l89 275l-234 171h290l89 276l90 -276h290z" />
    <glyph glyph-name="ballotbox" unicode="&#x2610;" horiz-adv-x="661" 
d="M616 0h-571v572h571v-572zM559 53v467h-457v-467h457z" />
    <glyph glyph-name="boxchecked" unicode="&#x2611;" horiz-adv-x="661" 
d="M677 698l-69 -126h8v-572h-571v572h502l84 156zM559 53v427l-211 -389l-202 246l42 39l152 -188l179 332h-417v-467h457z" />
    <glyph glyph-name="diamond" unicode="&#x2666;" horiz-adv-x="501" 
d="M501 285l-251 -250l-250 250l250 251z" />
    <glyph glyph-name="checkmark" unicode="&#x2713;" horiz-adv-x="531" 
d="M531 698l-329 -607l-202 246l42 39l152 -188l291 540z" />
    <glyph glyph-name="perthousand.onum" unicode="&#xf628;" horiz-adv-x="878" 
d="M288 425c0 -77 -53 -136 -132 -136c-77 0 -130 59 -130 136s53 137 130 137c79 0 132 -60 132 -137zM566 125c0 -77 -54 -136 -131 -136s-131 59 -131 136c0 78 54 137 131 137s131 -59 131 -137zM514 550l-384 -550h-52l382 550h54zM236 425c0 52 -32 93 -80 93
c-46 0 -79 -41 -79 -93s33 -92 79 -92c48 0 80 40 80 92zM515 125c0 53 -32 93 -80 93s-80 -40 -80 -93c0 -51 32 -92 80 -92s80 41 80 92zM852 125c0 -77 -53 -136 -131 -136c-77 0 -130 63 -130 136c0 78 53 137 130 137c78 0 131 -59 131 -137zM801 125
c0 53 -32 93 -80 93c-47 0 -79 -40 -79 -93c0 -51 32 -92 79 -92c48 0 80 41 80 92z" />
    <glyph glyph-name="zero.tzero" unicode="&#xf638;" horiz-adv-x="612" 
d="M306 -12c-62 0 -111 21 -149 55l-27 -43h-65l54 86c-48 67 -68 160 -68 247c0 163 72 344 255 344c61 0 109 -21 147 -54l28 44h65l-54 -87c48 -67 69 -160 69 -247c0 -162 -73 -345 -255 -345zM306 62c127 0 170 138 170 271c0 61 -9 122 -31 171l-246 -394
c26 -30 61 -48 107 -48zM136 333c0 -61 9 -122 30 -171l246 394c-26 29 -61 47 -106 47c-127 0 -170 -137 -170 -270z" />
    <glyph glyph-name="zero.tnum" unicode="&#xf639;" horiz-adv-x="598" 
d="M299 -12c-183 0 -255 183 -255 345c0 163 72 344 255 344c182 0 255 -181 255 -344c0 -162 -73 -345 -255 -345zM299 62c127 0 170 138 170 271s-43 270 -170 270s-170 -137 -170 -270s43 -271 170 -271z" />
    <glyph glyph-name="two.tnum" unicode="&#xf63a;" horiz-adv-x="598" 
d="M527 0h-458v67c240 188 371 299 371 414c0 86 -71 122 -140 122c-80 0 -142 -34 -181 -84l-51 53c51 68 138 105 232 105c111 0 224 -63 224 -196c0 -136 -138 -260 -324 -407h327v-74z" />
    <glyph glyph-name="three.tnum" unicode="&#xf63b;" horiz-adv-x="598" 
d="M298 -12c-113 0 -196 50 -237 110l49 52c39 -52 107 -88 186 -88c97 0 156 49 156 125c0 83 -68 118 -166 118c-28 0 -59 0 -69 -1v76c11 -1 42 -1 69 -1c84 0 155 33 155 110c0 74 -68 114 -149 114c-73 0 -127 -28 -176 -81l-46 52c48 59 125 103 229 103
c128 0 225 -65 225 -177c0 -97 -81 -145 -143 -155c60 -6 154 -57 154 -165c0 -111 -90 -192 -237 -192z" />
    <glyph glyph-name="four.tnum" unicode="&#xf63c;" horiz-adv-x="598" 
d="M451 0h-83v169h-317v69l286 429h114v-425h94v-73h-94v-169zM368 242v348l-234 -348h234z" />
    <glyph glyph-name="five.tnum" unicode="&#xf63d;" horiz-adv-x="598" 
d="M305 -12c-112 0 -185 41 -235 107l51 56c44 -57 103 -89 184 -89c91 0 154 62 154 143c0 88 -63 144 -153 144c-58 0 -109 -19 -154 -62l-61 21v359h408v-74h-325v-232c33 32 89 60 156 60c112 0 213 -75 213 -213c0 -135 -104 -220 -238 -220z" />
    <glyph glyph-name="six.tnum" unicode="&#xf63e;" horiz-adv-x="598" 
d="M316 -12c-187 0 -258 163 -258 345c0 180 84 344 272 344c85 0 143 -32 184 -80l-42 -62c-34 40 -73 68 -142 68c-130 0 -188 -131 -188 -262v-26c29 46 103 104 189 104c120 0 218 -71 218 -213c0 -115 -88 -218 -233 -218zM312 62c103 0 153 78 153 141
c0 98 -68 144 -153 144c-67 0 -131 -41 -167 -99c7 -83 51 -186 167 -186z" />
    <glyph glyph-name="seven.tnum" unicode="&#xf63f;" horiz-adv-x="598" 
d="M254 0h-92l269 593h-359v74h455v-57z" />
    <glyph glyph-name="eight.tnum" unicode="&#xf640;" horiz-adv-x="598" 
d="M299 -12c-132 0 -239 67 -239 181c0 89 76 150 159 175c-77 22 -148 73 -148 160c0 120 117 173 228 173c110 0 229 -53 229 -173c0 -87 -72 -138 -149 -160c83 -25 159 -86 159 -175c0 -113 -108 -181 -239 -181zM299 378c41 7 145 34 145 115c0 69 -65 110 -145 110
c-81 0 -144 -41 -144 -110c0 -81 104 -108 144 -115zM299 62c82 0 155 44 155 116c0 87 -114 124 -155 129c-41 -5 -155 -42 -155 -129c0 -72 72 -116 155 -116z" />
    <glyph glyph-name="nine.tnum" unicode="&#xf641;" horiz-adv-x="598" 
d="M270 -11c-85 0 -143 33 -185 80l42 62c34 -40 74 -68 143 -68c135 0 188 135 188 262c0 8 0 17 -1 26c-29 -46 -103 -104 -188 -104c-120 0 -219 71 -219 213c0 115 88 218 234 218c186 0 258 -163 258 -345c0 -180 -85 -344 -272 -344zM288 319c66 0 131 41 167 100
c-8 82 -52 185 -168 185c-102 0 -153 -77 -153 -141c0 -98 68 -144 154 -144z" />
    <glyph glyph-name="percent.onum" unicode="&#xf642;" horiz-adv-x="592" 
d="M288 425c0 -77 -53 -136 -132 -136c-77 0 -130 59 -130 136s53 137 130 137c79 0 132 -60 132 -137zM566 125c0 -77 -54 -136 -131 -136s-131 59 -131 136c0 78 54 137 131 137s131 -59 131 -137zM514 550l-384 -550h-52l382 550h54zM236 425c0 52 -32 93 -80 93
c-46 0 -79 -41 -79 -93s33 -92 79 -92c48 0 80 40 80 92zM515 125c0 53 -32 93 -80 93s-80 -40 -80 -93c0 -52 32 -92 80 -92s80 41 80 92z" />
    <glyph glyph-name="zero.tonum" unicode="&#xf643;" horiz-adv-x="598" 
d="M554 275c0 -143 -77 -287 -255 -287s-255 144 -255 287c0 144 77 287 255 287s255 -143 255 -287zM469 275c0 107 -49 213 -170 213c-120 0 -170 -106 -170 -213s50 -213 170 -213s170 106 170 213z" />
    <glyph glyph-name="one.tonum" unicode="&#xf644;" horiz-adv-x="598" 
d="M396 0h-83v441l-107 -114l-50 51l167 172h73v-550z" />
    <glyph glyph-name="two.tonum" unicode="&#xf645;" horiz-adv-x="598" 
d="M510 0h-431v67c248 101 358 208 358 304c0 69 -61 117 -136 117c-78 0 -146 -32 -186 -84l-51 53c52 68 145 105 239 105c124 0 218 -70 218 -180c0 -121 -127 -238 -289 -308h278v-74z" />
    <glyph glyph-name="three.tonum" unicode="&#xf646;" horiz-adv-x="598" 
d="M298 -134c-113 0 -196 50 -237 110l49 52c39 -52 107 -88 186 -88c97 0 156 49 156 125c0 83 -68 118 -166 118c-28 0 -59 0 -69 -1v76c11 -1 42 -1 69 -1c84 0 155 33 155 110c0 74 -68 114 -149 114c-73 0 -127 -28 -176 -81l-46 52c48 59 125 103 229 103
c128 0 225 -65 225 -177c0 -97 -81 -145 -143 -155c60 -6 154 -57 154 -165c0 -111 -90 -192 -237 -192z" />
    <glyph glyph-name="four.tonum" unicode="&#xf647;" horiz-adv-x="598" 
d="M545 55h-94v-172h-83v172h-317v69l286 426h114v-422h94v-73zM368 128v345l-234 -345h234z" />
    <glyph glyph-name="five.tonum" unicode="&#xf648;" horiz-adv-x="598" 
d="M305 -129c-112 0 -185 41 -235 107l51 56c44 -57 103 -89 184 -89c91 0 154 62 154 143c0 88 -63 144 -153 144c-58 0 -109 -19 -154 -62l-61 21v359h408v-74h-325v-232c33 32 89 60 156 60c112 0 213 -75 213 -213c0 -135 -104 -220 -238 -220z" />
    <glyph glyph-name="six.tonum" unicode="&#xf649;" horiz-adv-x="598" 
d="M316 -12c-187 0 -258 163 -258 345c0 180 84 344 272 344c85 0 143 -32 184 -80l-42 -62c-34 40 -73 68 -142 68c-130 0 -188 -131 -188 -262v-26c29 46 103 104 189 104c120 0 218 -71 218 -213c0 -115 -88 -218 -233 -218zM312 62c103 0 153 78 153 141
c0 98 -68 144 -153 144c-67 0 -131 -41 -167 -99c7 -83 51 -186 167 -186z" />
    <glyph glyph-name="seven.tonum" unicode="&#xf64a;" horiz-adv-x="598" 
d="M254 -117h-92l269 593h-359v74h455v-57z" />
    <glyph glyph-name="eight.tonum" unicode="&#xf64b;" horiz-adv-x="598" 
d="M299 -12c-132 0 -239 67 -239 181c0 89 76 150 159 175c-77 22 -148 73 -148 160c0 120 117 173 228 173c110 0 229 -53 229 -173c0 -87 -72 -138 -149 -160c83 -25 159 -86 159 -175c0 -113 -108 -181 -239 -181zM299 378c41 7 145 34 145 115c0 69 -65 110 -145 110
c-81 0 -144 -41 -144 -110c0 -81 104 -108 144 -115zM299 62c82 0 155 44 155 116c0 87 -114 124 -155 129c-41 -5 -155 -42 -155 -129c0 -72 72 -116 155 -116z" />
    <glyph glyph-name="nine.tonum" unicode="&#xf64c;" horiz-adv-x="598" 
d="M270 -127c-85 0 -143 33 -185 80l42 62c34 -40 74 -68 143 -68c135 0 188 135 188 262c0 8 0 17 -1 26c-29 -46 -103 -104 -188 -104c-120 0 -219 71 -219 213c0 115 88 218 234 218c186 0 258 -163 258 -345c0 -180 -85 -344 -272 -344zM288 203c66 0 131 41 167 100
c-8 82 -52 185 -168 185c-102 0 -153 -77 -153 -141c0 -98 68 -144 154 -144z" />
    <glyph glyph-name="colonmonetary.onum" unicode="&#xf64d;" horiz-adv-x="582" 
d="M245 -53l17 51c-20 4 -39 11 -57 19l-24 -70h-43l31 91c-75 50 -122 134 -122 238c0 169 127 286 294 286h4l13 37h43l-14 -41c21 -3 40 -9 58 -16l20 57h43l-26 -76c30 -19 56 -45 77 -74l-63 -35c-10 15 -23 28 -38 39l-133 -396h16c64 0 124 32 155 79l64 -35
c-49 -67 -121 -113 -219 -113c-13 0 -26 1 -39 2l-14 -43h-43zM127 276c0 -67 25 -124 67 -163l128 379c-112 -9 -195 -96 -195 -216zM228 87c17 -10 36 -18 56 -23l139 411c-18 8 -38 14 -59 16z" />
    <glyph glyph-name="Euro.onum" unicode="&#xf64e;" horiz-adv-x="610" 
d="M410 311h-253c-1 -12 -2 -23 -2 -35c0 -13 0 -26 2 -38h253v-48h-239c31 -81 106 -133 198 -133c64 0 124 32 155 79l64 -35c-49 -67 -121 -113 -219 -113c-137 0 -248 79 -283 202h-55v48h46c-2 12 -2 25 -2 38c0 12 1 23 2 35h-46v48h55c34 123 145 203 283 203
c98 0 171 -46 218 -113l-63 -35c-33 48 -91 79 -155 79c-93 0 -168 -53 -199 -134h240v-48z" />
    <glyph glyph-name="florin.onum" unicode="&#xf64f;" horiz-adv-x="367" 
d="M106 -119h-83l74 334h-50v57h62l30 135c22 99 70 154 152 154c31 0 61 -8 86 -32l-33 -60c-10 13 -24 18 -42 18c-47 0 -68 -39 -80 -90l-28 -125h106v-57h-119z" />
    <glyph glyph-name="numbersign.onum" unicode="&#xf650;" horiz-adv-x="496" 
d="M475 394l-14 -47h-88l-47 -141h89l-15 -47h-90l-53 -159h-57l53 159h-90l-53 -159h-57l53 159h-84l15 47h86l47 141h-87l14 47h88l53 156h57l-53 -156h89l54 156h57l-54 -156h87zM315 347h-88l-48 -141h90z" />
    <glyph glyph-name="sterling.onum" unicode="&#xf651;" horiz-adv-x="425" 
d="M14 224v48h71c-25 35 -48 74 -48 125c0 94 82 164 184 164c73 0 137 -33 167 -90l-59 -32c-19 41 -57 64 -102 64c-61 0 -113 -41 -113 -106c0 -49 28 -87 54 -125h135v-48h-107c7 -16 12 -33 12 -51c0 -40 -23 -76 -53 -95c6 2 13 3 22 3c54 0 84 -28 128 -28
c32 0 64 13 78 31l34 -56c-23 -22 -65 -39 -116 -39c-72 0 -80 34 -145 34c-26 0 -62 -15 -94 -31l-27 54c71 31 106 71 106 113c0 23 -9 44 -22 65h-105z" />
    <glyph glyph-name="yen.onum" unicode="&#xf652;" horiz-adv-x="547" 
d="M314 0h-78v113h-212v48h212v71h-212v47h179l-196 271h91l178 -250l174 250h90l-193 -271h175v-47h-208v-71h208v-48h-208v-113z" />
    <glyph glyph-name="cent.onum" unicode="&#xf654;" horiz-adv-x="582" 
d="M309 -92v82c-151 13 -262 127 -262 286c0 158 111 270 262 284v59h59v-59c84 -7 148 -51 191 -111l-63 -35c-29 41 -75 69 -128 77v-432c53 7 101 36 128 77l64 -35c-45 -61 -108 -104 -192 -111v-82h-59zM127 276c0 -116 77 -203 182 -217v432
c-105 -15 -182 -100 -182 -215z" />
    <glyph glyph-name="zero.dnom" unicode="&#xf655;" 
d="M356 200c0 -99 -48 -207 -162 -207c-115 0 -161 108 -161 207s46 206 161 206c114 0 162 -107 162 -206zM294 200c0 82 -27 157 -100 157c-74 0 -100 -75 -100 -157s27 -158 100 -158s100 76 100 158z" />
    <glyph glyph-name="one.dnom" unicode="&#xf656;" horiz-adv-x="235" 
d="M175 0h-60v322l-66 -69l-35 37l108 110h53v-400z" />
    <glyph glyph-name="two.dnom" unicode="&#xf657;" 
d="M341 0h-291v45c153 110 229 174 229 239c0 51 -42 73 -85 73c-49 0 -91 -24 -112 -52l-33 38c33 42 91 63 147 63c73 0 143 -36 143 -118c0 -80 -83 -153 -201 -239h203v-49z" />
    <glyph glyph-name="three.dnom" unicode="&#xf658;" 
d="M343 109c0 -68 -57 -116 -151 -116c-71 0 -124 29 -150 65l33 38c26 -33 70 -54 116 -54c57 0 92 27 92 70c0 51 -46 69 -104 69c-17 0 -34 0 -40 -1v50c7 -1 23 -1 40 -1c55 0 98 17 98 64c0 42 -41 64 -90 64c-44 0 -79 -16 -109 -48l-31 35c31 35 79 62 146 62
c84 0 143 -41 143 -107c0 -58 -50 -86 -89 -92c38 -4 96 -34 96 -98z" />
    <glyph glyph-name="four.dnom" unicode="&#xf659;" 
d="M352 100h-57v-100h-60v100h-196v45l173 255h83v-251h57v-49zM235 149v198l-136 -198h136z" />
    <glyph glyph-name="five.dnom" unicode="&#xf65a;" 
d="M344 126c0 -81 -65 -133 -152 -133c-70 0 -118 25 -148 65l35 39c27 -35 65 -55 113 -55c55 0 93 36 93 82c0 50 -37 83 -91 83c-37 0 -67 -12 -95 -39l-43 16v216h261v-49h-200v-134c19 19 54 36 95 36c69 0 132 -43 132 -127z" />
    <glyph glyph-name="six.dnom" unicode="&#xf65b;" 
d="M351 125c0 -71 -58 -132 -148 -132c-118 0 -165 96 -165 207c0 112 57 206 174 206c52 0 89 -18 117 -46l-29 -42c-22 24 -46 39 -88 39c-79 0 -113 -73 -114 -146c0 -5 0 -11 1 -17c19 28 63 61 114 61c75 0 138 -44 138 -130zM290 123c0 57 -42 84 -92 84
c-37 0 -76 -22 -98 -55c4 -52 31 -110 101 -110c58 0 89 44 89 81z" />
    <glyph glyph-name="seven.dnom" unicode="&#xf65c;" horiz-adv-x="362" 
d="M323 359l-166 -359h-67l166 351h-223v49h290v-41z" />
    <glyph glyph-name="eight.dnom" unicode="&#xf65d;" 
d="M347 102c0 -72 -71 -109 -153 -109s-153 36 -153 109c0 53 47 91 101 104c-50 12 -94 44 -94 95c0 74 76 105 146 105s146 -31 146 -105c0 -51 -43 -83 -94 -95c54 -13 101 -51 101 -104zM280 294c0 42 -37 64 -86 64s-87 -22 -87 -64c0 -49 67 -63 87 -68
c21 5 86 19 86 68zM287 107c0 54 -71 74 -93 77c-22 -3 -94 -23 -94 -77c0 -42 44 -67 94 -67s93 25 93 67z" />
    <glyph glyph-name="nine.dnom" unicode="&#xf65e;" 
d="M38 274c0 72 57 132 148 132c118 0 165 -96 165 -207c0 -112 -58 -206 -175 -206c-52 0 -89 18 -116 46l29 42c21 -24 46 -39 87 -39c77 0 113 71 114 147v16c-20 -28 -64 -61 -114 -61c-75 0 -138 44 -138 130zM98 276c0 -57 42 -84 92 -84c38 0 76 22 99 56
c-5 51 -32 109 -100 109c-60 0 -91 -44 -91 -81z" />
    <glyph glyph-name="zero.numr" unicode="&#xf661;" 
d="M356 467c0 -99 -48 -207 -162 -207c-115 0 -161 108 -161 207s46 206 161 206c114 0 162 -107 162 -206zM294 467c0 82 -27 157 -100 157c-74 0 -100 -75 -100 -157s27 -158 100 -158s100 76 100 158z" />
    <glyph glyph-name="one.numr" unicode="&#xf662;" horiz-adv-x="235" 
d="M175 267h-60v322l-66 -69l-35 37l108 110h53v-400z" />
    <glyph glyph-name="two.numr" unicode="&#xf663;" 
d="M341 267h-291v45c153 110 229 174 229 239c0 51 -42 73 -85 73c-49 0 -91 -24 -112 -52l-33 38c33 42 91 63 147 63c73 0 143 -36 143 -118c0 -80 -83 -153 -201 -239h203v-49z" />
    <glyph glyph-name="three.numr" unicode="&#xf664;" 
d="M343 376c0 -68 -57 -116 -151 -116c-71 0 -124 29 -150 65l33 38c26 -33 70 -54 116 -54c57 0 92 27 92 70c0 51 -46 69 -104 69c-17 0 -34 0 -40 -1v50c7 -1 23 -1 40 -1c55 0 98 17 98 64c0 42 -41 64 -90 64c-44 0 -79 -16 -109 -48l-31 35c31 35 79 62 146 62
c84 0 143 -41 143 -107c0 -58 -50 -86 -89 -92c38 -4 96 -34 96 -98z" />
    <glyph glyph-name="four.numr" unicode="&#xf665;" 
d="M352 367h-57v-100h-60v100h-196v45l173 255h83v-251h57v-49zM235 416v198l-136 -198h136z" />
    <glyph glyph-name="five.numr" unicode="&#xf666;" 
d="M344 393c0 -81 -65 -133 -152 -133c-70 0 -118 25 -148 65l35 39c27 -35 65 -55 113 -55c55 0 93 36 93 82c0 50 -37 83 -91 83c-37 0 -67 -12 -95 -39l-43 16v216h261v-49h-200v-134c19 19 54 36 95 36c69 0 132 -43 132 -127z" />
    <glyph glyph-name="six.numr" unicode="&#xf667;" 
d="M351 392c0 -71 -58 -132 -148 -132c-118 0 -165 96 -165 207c0 112 57 206 174 206c52 0 89 -18 117 -46l-29 -42c-22 24 -46 39 -88 39c-79 0 -113 -73 -114 -146c0 -5 0 -11 1 -17c19 28 63 61 114 61c75 0 138 -44 138 -130zM290 390c0 57 -42 84 -92 84
c-37 0 -76 -22 -98 -55c4 -52 31 -110 101 -110c58 0 89 44 89 81z" />
    <glyph glyph-name="seven.numr" unicode="&#xf668;" horiz-adv-x="362" 
d="M323 626l-166 -359h-67l166 351h-223v49h290v-41z" />
    <glyph glyph-name="eight.numr" unicode="&#xf669;" 
d="M347 369c0 -72 -71 -109 -153 -109s-153 36 -153 109c0 53 47 91 101 104c-50 12 -94 44 -94 95c0 74 76 105 146 105s146 -31 146 -105c0 -51 -43 -83 -94 -95c54 -13 101 -51 101 -104zM280 561c0 42 -37 64 -86 64s-87 -22 -87 -64c0 -49 67 -63 87 -68
c21 5 86 19 86 68zM287 374c0 54 -71 74 -93 77c-22 -3 -94 -23 -94 -77c0 -42 44 -67 94 -67s93 25 93 67z" />
    <glyph glyph-name="nine.numr" unicode="&#xf66a;" 
d="M38 541c0 72 57 132 148 132c118 0 165 -96 165 -207c0 -112 -58 -206 -175 -206c-52 0 -89 18 -116 46l29 42c21 -24 46 -39 87 -39c77 0 113 71 114 147v16c-20 -28 -64 -61 -114 -61c-75 0 -138 44 -138 130zM98 543c0 -57 42 -84 92 -84c38 0 76 22 99 56
c-5 51 -32 109 -100 109c-60 0 -91 -44 -91 -81z" />
    <glyph glyph-name="Abreve.smcp" unicode="&#xf66d;" horiz-adv-x="572" 
d="M240 550h93l232 -550h-87l-51 120h-281l-51 -120h-88zM403 189l-116 279l-117 -279h233zM462 691c-40 -54 -103 -88 -175 -88c-71 0 -135 34 -176 88l38 32c31 -44 79 -72 138 -72c58 0 107 27 139 72z" />
    <glyph glyph-name="Amacron.smcp" unicode="&#xf66e;" horiz-adv-x="572" 
d="M240 550h93l232 -550h-87l-51 120h-281l-51 -120h-88zM403 189l-116 279l-117 -279h233zM469 628h-363v48h363v-48z" />
    <glyph glyph-name="Aogonek.smcp" unicode="&#xf66f;" horiz-adv-x="572" 
d="M240 550h93l232 -550c-48 -24 -76 -55 -76 -97c0 -34 18 -50 45 -50s42 15 51 42l37 -21c-14 -32 -41 -60 -88 -60s-90 26 -90 87c0 38 20 73 53 99h-19l-51 120h-281l-51 -120h-88zM403 189l-116 279l-117 -279h233z" />
    <glyph glyph-name="AEacute.smcp" unicode="&#xf670;" horiz-adv-x="821" 
d="M582 750l-169 -144h-57l148 144h78zM770 0h-383v120h-216l-76 -120h-89l352 550h412v-69h-305v-165h299v-69h-299v-178h305v-69zM387 189v279l-178 -279h178z" />
    <glyph glyph-name="Cacute.smcp" unicode="&#xf671;" horiz-adv-x="582" 
d="M341 -12c-167 0 -294 118 -294 288c0 169 127 286 294 286c98 0 171 -46 218 -113l-63 -35c-33 48 -91 79 -155 79c-121 0 -214 -90 -214 -217s93 -219 214 -219c64 0 124 32 155 79l64 -35c-49 -67 -121 -113 -219 -113zM502 750l-169 -144h-57l148 144h78z" />
    <glyph glyph-name="Ccaron.smcp" unicode="&#xf672;" horiz-adv-x="582" 
d="M341 -12c-167 0 -294 118 -294 288c0 169 127 286 294 286c98 0 171 -46 218 -113l-63 -35c-33 48 -91 79 -155 79c-121 0 -214 -90 -214 -217s93 -219 214 -219c64 0 124 32 155 79l64 -35c-49 -67 -121 -113 -219 -113zM380 606h-72l-98 144h51l83 -106l80 106h51z" />
    <glyph glyph-name="Ccircumflex.smcp" unicode="&#xf673;" horiz-adv-x="582" 
d="M341 -12c-167 0 -294 118 -294 288c0 169 127 286 294 286c98 0 171 -46 218 -113l-63 -35c-33 48 -91 79 -155 79c-121 0 -214 -90 -214 -217s93 -219 214 -219c64 0 124 32 155 79l64 -35c-49 -67 -121 -113 -219 -113zM475 606h-51l-83 106l-80 -106h-51l95 144h72z
" />
    <glyph glyph-name="Cdotaccent.smcp" unicode="&#xf674;" horiz-adv-x="582" 
d="M341 -12c-167 0 -294 118 -294 288c0 169 127 286 294 286c98 0 171 -46 218 -113l-63 -35c-33 48 -91 79 -155 79c-121 0 -214 -90 -214 -217s93 -219 214 -219c64 0 124 32 155 79l64 -35c-49 -67 -121 -113 -219 -113zM343 629c-25 0 -47 21 -47 47s22 47 47 47
c26 0 47 -21 47 -47s-21 -47 -47 -47z" />
    <glyph glyph-name="Dcaron.smcp" unicode="&#xf675;" horiz-adv-x="615" 
d="M263 0h-200v550h200c180 0 293 -120 293 -276s-113 -274 -293 -274zM263 69c137 0 212 92 212 205c0 115 -73 207 -212 207h-121v-412h121zM334 606h-72l-98 144h51l83 -106l80 106h51z" />
    <glyph glyph-name="Dcroat.smcp" unicode="&#xf676;" horiz-adv-x="626" 
d="M273 0h-200v251h-63v52h63v247h200c180 0 293 -120 293 -276s-113 -274 -293 -274zM285 251h-133v-182h121c137 0 212 92 212 205c0 115 -73 207 -212 207h-121v-178h133v-52z" />
    <glyph glyph-name="Ebreve.smcp" unicode="&#xf677;" horiz-adv-x="509" 
d="M457 0h-382v550h382v-69h-303v-165h298v-69h-298v-178h303v-69zM440 691c-40 -54 -103 -88 -175 -88c-71 0 -135 34 -176 88l38 32c31 -44 79 -72 138 -72c58 0 107 27 139 72z" />
    <glyph glyph-name="Ecaron.smcp" unicode="&#xf678;" horiz-adv-x="509" 
d="M457 0h-382v550h382v-69h-303v-165h298v-69h-298v-178h303v-69zM305 606h-72l-98 144h51l83 -106l80 106h51z" />
    <glyph glyph-name="Edotaccent.smcp" unicode="&#xf679;" horiz-adv-x="509" 
d="M457 0h-382v550h382v-69h-303v-165h298v-69h-298v-178h303v-69zM272 629c-25 0 -47 21 -47 47s22 47 47 47c26 0 47 -21 47 -47s-21 -47 -47 -47z" />
    <glyph glyph-name="Emacron.smcp" unicode="&#xf67a;" horiz-adv-x="509" 
d="M457 0h-382v550h382v-69h-303v-165h298v-69h-298v-178h303v-69zM446 628h-363v48h363v-48z" />
    <glyph glyph-name="Eng.smcp" unicode="&#xf67b;" horiz-adv-x="632" 
d="M368 -196c-60 0 -111 22 -149 68l37 57c25 -31 59 -56 107 -56c71 0 115 46 115 113v14l-325 428v-428h-78v550h82l322 -420v420h78v-570c0 -120 -81 -176 -189 -176z" />
    <glyph glyph-name="Eogonek.smcp" unicode="&#xf67c;" horiz-adv-x="509" 
d="M477 -105l37 -21c-14 -32 -41 -60 -88 -60s-90 26 -90 87c0 38 20 73 53 99h-314v550h382v-69h-303v-165h298v-69h-298v-178h303v-69c-48 -24 -76 -55 -76 -97c0 -34 18 -50 45 -50s42 15 51 42z" />
    <glyph glyph-name="Gbreve.smcp" unicode="&#xf67d;" horiz-adv-x="626" 
d="M341 -12c-164 0 -294 116 -294 287s130 287 294 287c97 0 170 -42 221 -101l-61 -41c-36 43 -94 72 -160 72c-121 0 -213 -90 -213 -217c0 -126 92 -218 213 -218c67 0 119 30 147 57v107h-170v66h248v-203c-54 -58 -133 -96 -225 -96zM518 691
c-40 -54 -103 -88 -175 -88c-71 0 -135 34 -176 88l38 32c31 -44 79 -72 138 -72c58 0 107 27 139 72z" />
    <glyph glyph-name="Gcircumflex.smcp" unicode="&#xf67e;" horiz-adv-x="626" 
d="M341 -12c-164 0 -294 116 -294 287s130 287 294 287c97 0 170 -42 221 -101l-61 -41c-36 43 -94 72 -160 72c-121 0 -213 -90 -213 -217c0 -126 92 -218 213 -218c67 0 119 30 147 57v107h-170v66h248v-203c-54 -58 -133 -96 -225 -96zM474 606h-51l-83 106l-80 -106h-51
l95 144h72z" />
    <glyph glyph-name="Gcommaaccent.smcp" unicode="&#xf67f;" horiz-adv-x="626" 
d="M341 -12c-164 0 -294 116 -294 287s130 287 294 287c97 0 170 -42 221 -101l-61 -41c-36 43 -94 72 -160 72c-121 0 -213 -90 -213 -217c0 -126 92 -218 213 -218c67 0 119 30 147 57v107h-170v66h248v-203c-54 -58 -133 -96 -225 -96zM397 -138c0 -54 -32 -105 -71 -134
l-32 26c29 20 54 57 57 86c-1 0 -7 -1 -11 -1c-24 0 -42 18 -42 44c0 25 20 46 46 46c28 0 53 -24 53 -67z" />
    <glyph glyph-name="Gdotaccent.smcp" unicode="&#xf680;" horiz-adv-x="626" 
d="M341 -12c-164 0 -294 116 -294 287s130 287 294 287c97 0 170 -42 221 -101l-61 -41c-36 43 -94 72 -160 72c-121 0 -213 -90 -213 -217c0 -126 92 -218 213 -218c67 0 119 30 147 57v107h-170v66h248v-203c-54 -58 -133 -96 -225 -96zM342 629c-25 0 -47 21 -47 47
s22 47 47 47c26 0 47 -21 47 -47s-21 -47 -47 -47z" />
    <glyph glyph-name="Hcircumflex.smcp" unicode="&#xf681;" horiz-adv-x="635" 
d="M560 0h-77v248h-329v-248h-79v550h79v-233h329v233h77v-550zM448 606h-51l-83 106l-80 -106h-51l95 144h72z" />
    <glyph glyph-name="Hbar.smcp" unicode="&#xf682;" horiz-adv-x="655" 
d="M570 0h-77v248h-329v-248h-79v411h-75v48h75v91h79v-91h329v91h77v-91h74v-48h-74v-411zM164 317h329v94h-329v-94z" />
    <glyph glyph-name="Ibreve.smcp" unicode="&#xf683;" horiz-adv-x="227" 
d="M153 0h-79v550h79v-550zM286 691c-40 -54 -103 -88 -175 -88c-71 0 -135 34 -176 88l38 32c31 -44 79 -72 138 -72c58 0 107 27 139 72z" />
    <glyph glyph-name="IJ.smcp" unicode="&#xf684;" horiz-adv-x="651" 
d="M154 0h-79v550h79v-550zM387 -12c-61 0 -112 22 -150 68l38 57c24 -31 59 -56 107 -56c71 0 115 46 115 113v380h78v-386c0 -120 -81 -176 -188 -176z" />
    <glyph glyph-name="Imacron.smcp" unicode="&#xf685;" horiz-adv-x="227" 
d="M153 0h-79v550h79v-550zM296 628h-363v48h363v-48z" />
    <glyph glyph-name="Iogonek.smcp" unicode="&#xf686;" horiz-adv-x="227" 
d="M173 -105l37 -21c-14 -32 -41 -60 -88 -60s-90 26 -90 87c0 38 20 73 53 99h-11v550h79v-550c-48 -24 -76 -55 -76 -97c0 -34 18 -50 45 -50s42 15 51 42z" />
    <glyph glyph-name="Itilde.smcp" unicode="&#xf687;" horiz-adv-x="227" 
d="M153 0h-79v550h79v-550zM174 591c-72 0 -75 92 -123 92c-27 0 -48 -26 -48 -86h-45c0 78 34 134 97 134c72 0 75 -92 123 -92c27 0 48 26 48 86h45c0 -78 -34 -134 -97 -134z" />
    <glyph glyph-name="Jcircumflex.smcp" unicode="&#xf688;" horiz-adv-x="422" 
d="M158 -12c-61 0 -112 22 -150 68l38 57c24 -31 59 -56 107 -56c71 0 115 46 115 113v380h78v-386c0 -120 -81 -176 -188 -176zM439 606h-51l-83 106l-80 -106h-51l95 144h72z" />
    <glyph glyph-name="Kcommaaccent.smcp" unicode="&#xf689;" horiz-adv-x="534" 
d="M520 0h-97l-216 243l-53 -58v-185h-79v550h79v-275l248 275h98l-242 -261zM324 -138c0 -54 -32 -105 -71 -134l-32 26c29 20 54 57 57 86c-1 0 -7 -1 -11 -1c-24 0 -42 18 -42 44c0 25 20 46 46 46c28 0 53 -24 53 -67z" />
    <glyph glyph-name="Lacute.smcp" unicode="&#xf68a;" horiz-adv-x="458" 
d="M420 0h-345v550h79v-481h266v-69zM412 750l-169 -144h-57l148 144h78z" />
    <glyph glyph-name="Lcaron.smcp" unicode="&#xf68b;" horiz-adv-x="458" 
d="M420 0h-345v550h79v-481h266v-69zM333 493c0 -54 -32 -105 -71 -134l-32 26c29 20 54 57 57 86c-1 0 -7 -1 -11 -1c-24 0 -42 18 -42 44c0 25 20 46 46 46c28 0 53 -24 53 -67z" />
    <glyph glyph-name="Lcommaaccent.smcp" unicode="&#xf68c;" horiz-adv-x="458" 
d="M420 0h-345v550h79v-481h266v-69zM299 -138c0 -54 -32 -105 -71 -134l-32 26c29 20 54 57 57 86c-1 0 -7 -1 -11 -1c-24 0 -42 18 -42 44c0 25 20 46 46 46c28 0 53 -24 53 -67z" />
    <glyph glyph-name="Ldot.smcp" unicode="&#xf68d;" horiz-adv-x="472" 
d="M420 0h-345v550h79v-481h266v-69zM410 294c0 -30 -25 -55 -55 -55s-55 25 -55 55c0 29 25 54 55 54s55 -25 55 -54z" />
    <glyph glyph-name="Nacute.smcp" unicode="&#xf68e;" horiz-adv-x="632" 
d="M557 0h-79l-325 428v-428h-78v550h82l322 -420v420h78v-550zM475 750l-169 -144h-57l148 144h78z" />
    <glyph glyph-name="Ncaron.smcp" unicode="&#xf68f;" horiz-adv-x="632" 
d="M557 0h-79l-325 428v-428h-78v550h82l322 -420v420h78v-550zM353 606h-72l-98 144h51l83 -106l80 106h51z" />
    <glyph glyph-name="Ncommaaccent.smcp" unicode="&#xf690;" horiz-adv-x="632" 
d="M557 0h-79l-325 428v-428h-78v550h82l322 -420v420h78v-550zM367 -138c0 -54 -32 -105 -71 -134l-32 26c29 20 54 57 57 86c-1 0 -7 -1 -11 -1c-24 0 -42 18 -42 44c0 25 20 46 46 46c28 0 53 -24 53 -67z" />
    <glyph glyph-name="Obreve.smcp" unicode="&#xf691;" horiz-adv-x="662" 
d="M331 -12c-171 0 -284 125 -284 287s113 287 284 287s284 -125 284 -287s-113 -287 -284 -287zM331 57c124 0 204 94 204 218c0 125 -80 218 -204 218s-204 -93 -204 -218c0 -124 80 -218 204 -218zM508 691c-40 -54 -103 -88 -175 -88c-71 0 -135 34 -176 88l38 32
c31 -44 79 -72 138 -72c58 0 107 27 139 72z" />
    <glyph glyph-name="Ohungarumlaut.smcp" unicode="&#xf692;" horiz-adv-x="662" 
d="M331 -12c-171 0 -284 125 -284 287s113 287 284 287s284 -125 284 -287s-113 -287 -284 -287zM331 57c124 0 204 94 204 218c0 125 -80 218 -204 218s-204 -93 -204 -218c0 -124 80 -218 204 -218zM387 750l-115 -144h-48l94 144h69zM529 750l-115 -144h-48l94 144h69z
" />
    <glyph glyph-name="Omacron.smcp" unicode="&#xf693;" horiz-adv-x="662" 
d="M331 -12c-171 0 -284 125 -284 287s113 287 284 287s284 -125 284 -287s-113 -287 -284 -287zM331 57c124 0 204 94 204 218c0 125 -80 218 -204 218s-204 -93 -204 -218c0 -124 80 -218 204 -218zM513 635h-363v48h363v-48z" />
    <glyph glyph-name="Oslashacute.smcp" unicode="&#xf694;" horiz-adv-x="662" 
d="M331 -12c-58 0 -109 14 -151 39l-20 -27h-67l43 59c-57 52 -89 129 -89 216c0 162 113 287 284 287c56 0 106 -14 148 -38l19 26h67l-42 -58c58 -52 92 -129 92 -217c0 -162 -113 -287 -284 -287zM331 57c124 0 204 94 204 218c0 63 -21 118 -57 157l-255 -346
c30 -19 67 -29 108 -29zM127 275c0 -62 19 -116 54 -155l255 346c-30 17 -65 27 -105 27c-124 0 -204 -93 -204 -218zM493 750l-169 -144h-57l148 144h78z" />
    <glyph glyph-name="Racute.smcp" unicode="&#xf695;" horiz-adv-x="545" 
d="M500 0h-92l-144 214h-110v-214h-79v550h236c116 0 182 -74 182 -168c0 -95 -62 -156 -149 -162zM304 282c72 0 108 42 108 100s-38 99 -108 99h-150v-199h150zM425 750l-169 -144h-57l148 144h78z" />
    <glyph glyph-name="Rcaron.smcp" unicode="&#xf696;" horiz-adv-x="545" 
d="M500 0h-92l-144 214h-110v-214h-79v550h236c116 0 182 -74 182 -168c0 -95 -62 -156 -149 -162zM304 282c72 0 108 42 108 100s-38 99 -108 99h-150v-199h150zM302 606h-72l-98 144h51l83 -106l80 106h51z" />
    <glyph glyph-name="Rcommaaccent.smcp" unicode="&#xf697;" horiz-adv-x="545" 
d="M500 0h-92l-144 214h-110v-214h-79v550h236c116 0 182 -74 182 -168c0 -95 -62 -156 -149 -162zM304 282c72 0 108 42 108 100s-38 99 -108 99h-150v-199h150zM322 -138c0 -54 -32 -105 -71 -134l-32 26c29 20 54 57 57 86c-1 0 -7 -1 -11 -1c-24 0 -42 18 -42 44
c0 25 20 46 46 46c28 0 53 -24 53 -67z" />
    <glyph glyph-name="Sacute.smcp" unicode="&#xf698;" horiz-adv-x="504" 
d="M252 -12c-97 0 -175 37 -220 86l42 59c37 -40 102 -77 180 -77c96 0 134 45 134 94c0 140 -338 57 -338 256c0 91 86 156 199 156c90 0 158 -30 206 -79l-41 -55c-42 45 -105 66 -165 66c-69 0 -118 -36 -118 -87c0 -119 337 -46 337 -254c0 -93 -69 -165 -216 -165z
M413 750l-169 -144h-57l148 144h78z" />
    <glyph glyph-name="Scedilla.smcp" unicode="&#xf699;" horiz-adv-x="504" 
d="M249 -191c-43 0 -81 14 -101 30l19 38c25 -20 53 -29 80 -29c33 0 61 15 61 42c0 21 -12 35 -37 35c-14 0 -29 -6 -38 -17l-33 19l23 62c-84 7 -151 41 -191 85l42 59c37 -40 102 -77 180 -77c96 0 134 45 134 94c0 140 -338 57 -338 256c0 91 86 156 199 156
c90 0 158 -30 206 -79l-41 -55c-42 45 -105 66 -165 66c-69 0 -118 -36 -118 -87c0 -119 337 -46 337 -254c0 -90 -65 -160 -201 -165l-17 -43c10 8 24 11 37 11c38 0 66 -26 66 -67c0 -49 -46 -80 -104 -80z" />
    <glyph glyph-name="Scircumflex.smcp" unicode="&#xf69a;" horiz-adv-x="504" 
d="M252 -12c-97 0 -175 37 -220 86l42 59c37 -40 102 -77 180 -77c96 0 134 45 134 94c0 140 -338 57 -338 256c0 91 86 156 199 156c90 0 158 -30 206 -79l-41 -55c-42 45 -105 66 -165 66c-69 0 -118 -36 -118 -87c0 -119 337 -46 337 -254c0 -93 -69 -165 -216 -165z
M386 606h-51l-83 106l-80 -106h-51l95 144h72z" />
    <glyph glyph-name="Scommaaccent.smcp" unicode="&#xf69b;" horiz-adv-x="504" 
d="M252 -12c-97 0 -175 37 -220 86l42 59c37 -40 102 -77 180 -77c96 0 134 45 134 94c0 140 -338 57 -338 256c0 91 86 156 199 156c90 0 158 -30 206 -79l-41 -55c-42 45 -105 66 -165 66c-69 0 -118 -36 -118 -87c0 -119 337 -46 337 -254c0 -93 -69 -165 -216 -165z
M308 -138c0 -54 -32 -105 -71 -134l-32 26c29 20 54 57 57 86c-1 0 -7 -1 -11 -1c-24 0 -42 18 -42 44c0 25 20 46 46 46c28 0 53 -24 53 -67z" />
    <glyph glyph-name="Tbar.smcp" unicode="&#xf69c;" horiz-adv-x="472" 
d="M275 0h-78v241h-117v48h117v192h-171v69h419v-69h-170v-192h117v-48h-117v-241z" />
    <glyph glyph-name="Tcaron.smcp" unicode="&#xf69d;" horiz-adv-x="472" 
d="M275 0h-78v481h-171v69h419v-69h-170v-481zM274 606h-72l-98 144h51l83 -106l80 106h51z" />
    <glyph glyph-name="Tcommaaccent.smcp" unicode="&#xf69e;" horiz-adv-x="472" 
d="M275 0h-78v481h-171v69h419v-69h-170v-481zM288 -138c0 -54 -32 -105 -71 -134l-32 26c29 20 54 57 57 86c-1 0 -7 -1 -11 -1c-24 0 -42 18 -42 44c0 25 20 46 46 46c28 0 53 -24 53 -67z" />
    <glyph glyph-name="Ubreve.smcp" unicode="&#xf69f;" horiz-adv-x="623" 
d="M311 -12c-157 0 -236 89 -236 224v338h79v-333c0 -98 55 -160 157 -160s158 62 158 160v333h79v-338c0 -136 -80 -224 -237 -224zM486 691c-40 -54 -103 -88 -175 -88c-71 0 -135 34 -176 88l38 32c31 -44 79 -72 138 -72c58 0 107 27 139 72z" />
    <glyph glyph-name="Uhungarumlaut.smcp" unicode="&#xf6a0;" horiz-adv-x="623" 
d="M311 -12c-157 0 -236 89 -236 224v338h79v-333c0 -98 55 -160 157 -160s158 62 158 160v333h79v-338c0 -136 -80 -224 -237 -224zM365 750l-115 -144h-48l94 144h69zM507 750l-115 -144h-48l94 144h69z" />
    <glyph glyph-name="Umacron.smcp" unicode="&#xf6a1;" horiz-adv-x="623" 
d="M311 -12c-157 0 -236 89 -236 224v338h79v-333c0 -98 55 -160 157 -160s158 62 158 160v333h79v-338c0 -136 -80 -224 -237 -224zM494 628h-363v48h363v-48z" />
    <glyph glyph-name="Uogonek.smcp" unicode="&#xf6a2;" horiz-adv-x="623" 
d="M311 -12c-157 0 -236 89 -236 224v338h79v-333c0 -98 55 -160 157 -160s158 62 158 160v333h79v-338c0 -107 -49 -184 -146 -212c-48 -24 -76 -55 -76 -97c0 -34 18 -50 45 -50s42 15 51 42l37 -21c-14 -32 -41 -60 -88 -60s-90 26 -90 87c0 33 15 63 39 87h-9z" />
    <glyph glyph-name="Uring.smcp" unicode="&#xf6a3;" horiz-adv-x="623" 
d="M311 -12c-157 0 -236 89 -236 224v338h79v-333c0 -98 55 -160 157 -160s158 62 158 160v333h79v-338c0 -136 -80 -224 -237 -224zM314 604c-54 0 -99 45 -99 99s45 99 99 99s97 -45 97 -99s-43 -99 -97 -99zM314 644c32 0 58 27 58 59s-26 59 -58 59
c-33 0 -59 -27 -59 -59s26 -59 59 -59z" />
    <glyph glyph-name="Utilde.smcp" unicode="&#xf6a4;" horiz-adv-x="623" 
d="M311 -12c-157 0 -236 89 -236 224v338h79v-333c0 -98 55 -160 157 -160s158 62 158 160v333h79v-338c0 -136 -80 -224 -237 -224zM371 604c-72 0 -75 92 -123 92c-27 0 -48 -26 -48 -86h-45c0 78 34 134 97 134c72 0 75 -92 123 -92c27 0 48 26 48 86h45
c0 -78 -34 -134 -97 -134z" />
    <glyph glyph-name="Wcircumflex.smcp" unicode="&#xf6a6;" horiz-adv-x="764" 
d="M515 606h-51l-83 106l-80 -106h-51l95 144h72zM588 0h-82l-125 431l-123 -431h-83l-165 550h87l123 -443l129 443h66l128 -444l124 444h86z" />
    <glyph glyph-name="Ycircumflex.smcp" unicode="&#xf6a9;" horiz-adv-x="547" 
d="M314 0h-78v233l-229 317h91l178 -250l174 250h90l-226 -317v-233zM409 606h-51l-83 106l-80 -106h-51l95 144h72z" />
    <glyph glyph-name="Zacute.smcp" unicode="&#xf6ab;" horiz-adv-x="516" 
d="M477 0h-437v59l325 422h-325v69h430v-59l-325 -422h332v-69zM417 750l-169 -144h-57l148 144h78z" />
    <glyph glyph-name="Zdotaccent.smcp" unicode="&#xf6ac;" horiz-adv-x="516" 
d="M477 0h-437v59l325 422h-325v69h430v-59l-325 -422h332v-69zM265 629c-25 0 -47 21 -47 47s22 47 47 47c26 0 47 -21 47 -47s-21 -47 -47 -47z" />
    <glyph glyph-name="Idotaccent.smcp" unicode="&#xf6ad;" horiz-adv-x="202" 
d="M142 0h-79v550h79v-550zM102 629c-25 0 -47 21 -47 47s22 47 47 47c26 0 47 -21 47 -47s-21 -47 -47 -47z" />
    <glyph glyph-name="parenleft.case" unicode="&#xf6ae;" horiz-adv-x="248" 
d="M231 -74l-46 -35c-90 124 -141 281 -141 442s51 318 141 442l46 -34c-65 -127 -105 -241 -105 -408c0 -166 40 -281 105 -407z" />
    <glyph glyph-name="parenright.case" unicode="&#xf6af;" horiz-adv-x="248" 
d="M17 -74l46 -35c90 124 141 281 141 442s-51 318 -141 442l-46 -34c65 -127 105 -241 105 -408c0 -166 -40 -281 -105 -407z" />
    <glyph glyph-name="bracketleft.case" unicode="&#xf6b0;" horiz-adv-x="243" 
d="M226 -100h-186v868h186v-55h-127v-758h127v-55z" />
    <glyph glyph-name="bracketright.case" unicode="&#xf6b1;" horiz-adv-x="243" 
d="M204 -100h-187v55h128v758h-128v55h187v-868z" />
    <glyph glyph-name="braceleft.case" unicode="&#xf6b2;" horiz-adv-x="261" 
d="M244 -100h-62c-63 0 -124 52 -124 134v206c0 37 -17 69 -53 69v50c36 0 53 32 53 69v205c0 83 61 135 124 135h62v-55h-62c-35 0 -66 -32 -66 -79v-212c0 -42 -12 -74 -45 -88c33 -14 45 -46 45 -88v-211c0 -46 31 -80 66 -80h62v-55z" />
    <glyph glyph-name="braceright.case" unicode="&#xf6b3;" horiz-adv-x="261" 
d="M17 -100v55h61c36 0 67 34 67 80v211c0 42 12 74 45 88c-33 14 -45 46 -45 88v212c0 47 -31 79 -67 79h-61v55h61c64 0 125 -52 125 -135v-205c0 -37 17 -69 52 -69v-50c-35 0 -52 -32 -52 -69v-206c0 -82 -61 -134 -125 -134h-61z" />
    <glyph glyph-name="exclamdown.case" unicode="&#xf6b4;" horiz-adv-x="230" 
d="M68 0l15 480h63l16 -480h-94zM60 622c0 30 25 55 55 55s54 -25 54 -55c0 -29 -24 -54 -54 -54s-55 25 -55 54z" />
    <glyph glyph-name="questiondown.case" unicode="&#xf6b5;" horiz-adv-x="462" 
d="M259 480c27 -23 38 -51 38 -82c0 -127 -180 -137 -180 -243c0 -50 39 -93 117 -93c76 0 123 32 160 81l50 -53c-48 -63 -122 -102 -217 -102c-122 0 -196 69 -196 155c0 151 193 164 193 262c0 16 -9 36 -26 48zM238 677c30 0 55 -25 55 -55s-25 -55 -55 -55
s-55 25 -55 55s25 55 55 55z" />
    <glyph glyph-name="guillemotleft.case" unicode="&#xf6b6;" horiz-adv-x="439" 
d="M409 162h-75l-160 180l160 177h75l-160 -177zM265 162h-75l-160 180l160 177h75l-160 -177z" />
    <glyph glyph-name="guillemotright.case" unicode="&#xf6b7;" horiz-adv-x="439" 
d="M265 342l-160 -180h-75l160 180l-160 177h75zM409 342l-160 -180h-75l160 180l-160 177h75z" />
    <glyph glyph-name="guilsinglleft.case" unicode="&#xf6b8;" horiz-adv-x="295" 
d="M265 162h-75l-160 180l160 177h75l-160 -177z" />
    <glyph glyph-name="guilsinglright.case" unicode="&#xf6b9;" horiz-adv-x="295" 
d="M265 342l-160 -180h-75l160 180l-160 177h75z" />
    <glyph glyph-name="hyphen.case" unicode="&#xf6ba;" horiz-adv-x="300" 
d="M270 308h-240v66h240v-66z" />
    <glyph glyph-name="endash.case" unicode="&#xf6bb;" horiz-adv-x="593" 
d="M563 308h-533v66h533v-66z" />
    <glyph glyph-name="emdash.case" unicode="&#xf6bc;" horiz-adv-x="833" 
d="M803 308h-773v66h773v-66z" />
    <glyph glyph-name="periodcentered.case" unicode="&#xf6bd;" horiz-adv-x="231" 
d="M170 343c0 -30 -25 -55 -55 -55s-55 25 -55 55c0 29 25 54 55 54s55 -25 55 -54z" />
    <glyph glyph-name="bullet.case" unicode="&#xf6be;" horiz-adv-x="358" 
d="M288 341c0 -58 -49 -107 -108 -107s-108 49 -108 107c0 59 49 108 108 108s108 -49 108 -108z" />
    <glyph glyph-name="cent.case" unicode="&#xf6bf;" horiz-adv-x="496" 
d="M252 -9v90c-124 17 -205 121 -205 252c0 130 81 233 205 250v73h59v-71c74 -6 120 -40 154 -83l-50 -45c-28 38 -63 57 -104 61v-371c41 4 76 24 104 62l50 -46c-34 -44 -80 -78 -154 -83v-89h-59zM125 333c0 -93 48 -165 127 -183v365c-79 -18 -127 -90 -127 -182z" />
    <glyph glyph-name="commaaccent" unicode="&#xf6c3;" horiz-adv-x="230" 
d="M167 -138c0 -54 -32 -105 -71 -134l-32 26c29 20 54 57 57 86c-1 0 -7 -1 -11 -1c-24 0 -42 18 -42 44c0 25 20 46 46 46c28 0 53 -24 53 -67z" />
    <glyph glyph-name="one.tnum" unicode="&#xf6dc;" horiz-adv-x="598" 
d="M396 0h-83v558l-107 -114l-50 51l167 172h73v-667z" />
    <glyph glyph-name="Lslash.smcp" unicode="&#xf6f9;" horiz-adv-x="481" 
d="M10 171v72l88 51v256h79v-211l94 55v-72l-94 -55v-198h266v-69h-345v222z" />
    <glyph glyph-name="OE.smcp" unicode="&#xf6fa;" horiz-adv-x="953" 
d="M902 0h-383v99c-43 -75 -114 -111 -199 -111c-165 0 -273 125 -273 287s108 287 273 287c85 0 156 -36 199 -110v98h383v-69h-305v-165h299v-69h-299v-178h305v-69zM519 194v164c-32 96 -108 135 -187 135c-125 0 -205 -93 -205 -218c0 -124 80 -218 205 -218
c82 0 155 41 187 137z" />
    <glyph glyph-name="Scaron.smcp" unicode="&#xf6fd;" horiz-adv-x="504" 
d="M252 -12c-97 0 -175 37 -220 86l42 59c37 -40 102 -77 180 -77c96 0 134 45 134 94c0 140 -338 57 -338 256c0 91 86 156 199 156c90 0 158 -30 206 -79l-41 -55c-42 45 -105 66 -165 66c-69 0 -118 -36 -118 -87c0 -119 337 -46 337 -254c0 -93 -69 -165 -216 -165z
M291 606h-72l-98 144h51l83 -106l80 106h51z" />
    <glyph glyph-name="Zcaron.smcp" unicode="&#xf6ff;" horiz-adv-x="516" 
d="M477 0h-437v59l325 422h-325v69h430v-59l-325 -422h332v-69zM293 606h-72l-98 144h51l83 -106l80 106h51z" />
    <glyph glyph-name="exclam.smcp" unicode="&#xf721;" horiz-adv-x="184" 
d="M135 550l-14 -384h-58l-14 384h86zM147 45c0 -30 -25 -55 -55 -55s-55 25 -55 55c0 29 25 55 55 55s55 -26 55 -55z" />
    <glyph glyph-name="dollar.onum" unicode="&#xf724;" horiz-adv-x="504" 
d="M225 -74v63c-85 6 -153 40 -193 85l42 59c32 -35 86 -68 151 -76v197c-87 22 -175 50 -175 152c0 84 74 146 175 155v67h59v-68c73 -7 129 -35 171 -77l-41 -55c-34 36 -82 57 -130 63v-174c89 -23 184 -54 184 -164c0 -86 -59 -154 -184 -164v-63h-59zM388 150
c0 51 -46 72 -104 89v-182c74 9 104 49 104 93zM131 407c0 -42 41 -60 94 -75v160c-56 -7 -94 -40 -94 -85z" />
    <glyph glyph-name="ampersand.smcp" unicode="&#xf726;" horiz-adv-x="556" 
d="M536 0h-95c-21 18 -42 38 -64 58c-46 -43 -101 -69 -168 -69c-104 0 -182 58 -182 156c0 86 59 130 126 164c-27 43 -43 83 -43 122c0 76 65 131 148 131c72 0 133 -37 133 -111c0 -84 -74 -121 -147 -156c20 -25 43 -50 66 -74c24 -27 46 -50 68 -72c26 39 47 83 60 125
l59 -24c-22 -53 -47 -102 -77 -143c35 -33 71 -66 116 -107zM216 44c45 0 85 21 119 54c-30 30 -58 59 -77 81c-28 30 -53 59 -74 86c-47 -27 -84 -60 -84 -115c0 -61 48 -106 116 -106zM179 430c0 -28 14 -60 35 -92c61 28 113 56 113 110c0 40 -28 61 -67 61
c-48 0 -81 -35 -81 -79z" />
    <glyph glyph-name="zero.onum" unicode="&#xf730;" horiz-adv-x="612" 
d="M561 275c0 -143 -77 -287 -255 -287s-255 144 -255 287c0 144 77 287 255 287s255 -143 255 -287zM476 275c0 107 -49 213 -170 213c-120 0 -170 -106 -170 -213s50 -213 170 -213s170 106 170 213z" />
    <glyph glyph-name="one.onum" unicode="&#xf731;" horiz-adv-x="339" 
d="M261 0h-83v441l-107 -114l-50 51l167 172h73v-550z" />
    <glyph glyph-name="two.onum" unicode="&#xf732;" horiz-adv-x="578" 
d="M491 0h-431v67c248 101 358 208 358 304c0 69 -61 117 -136 117c-78 0 -146 -32 -186 -84l-51 53c52 68 145 105 239 105c124 0 218 -70 218 -180c0 -121 -127 -238 -289 -308h278v-74z" />
    <glyph glyph-name="three.onum" unicode="&#xf733;" horiz-adv-x="553" 
d="M262 -129c-113 0 -196 50 -237 110l49 52c39 -52 107 -88 186 -88c97 0 156 49 156 125c0 83 -68 118 -166 118c-28 0 -59 0 -69 -1v76c11 -1 42 -1 69 -1c84 0 155 33 155 110c0 74 -68 114 -149 114c-73 0 -127 -28 -176 -81l-46 52c48 59 125 103 229 103
c128 0 225 -65 225 -177c0 -97 -81 -145 -143 -155c60 -6 154 -57 154 -165c0 -111 -90 -192 -237 -192z" />
    <glyph glyph-name="four.onum" unicode="&#xf734;" horiz-adv-x="558" 
d="M526 55h-94v-172h-83v172h-317v69l286 426h114v-422h94v-73zM349 128v345l-234 -345h234z" />
    <glyph glyph-name="five.onum" unicode="&#xf735;" horiz-adv-x="590" 
d="M301 -129c-112 0 -185 41 -235 107l51 56c44 -57 103 -89 184 -89c91 0 154 62 154 143c0 88 -63 144 -153 144c-58 0 -109 -19 -154 -62l-61 21v359h408v-74h-325v-232c33 32 89 60 156 60c112 0 213 -75 213 -213c0 -135 -104 -220 -238 -220z" />
    <glyph glyph-name="six.onum" unicode="&#xf736;" horiz-adv-x="591" 
d="M309 -12c-187 0 -258 163 -258 345c0 180 84 344 272 344c85 0 143 -32 184 -80l-42 -62c-34 40 -73 68 -142 68c-130 0 -188 -131 -188 -262v-26c29 46 103 104 189 104c120 0 218 -71 218 -213c0 -115 -88 -218 -233 -218zM305 62c103 0 153 78 153 141
c0 98 -68 144 -153 144c-67 0 -131 -41 -167 -99c7 -83 51 -186 167 -186z" />
    <glyph glyph-name="seven.onum" unicode="&#xf737;" horiz-adv-x="515" 
d="M213 -117h-92l269 593h-359v74h455v-57z" />
    <glyph glyph-name="eight.onum" unicode="&#xf738;" horiz-adv-x="582" 
d="M291 -12c-132 0 -239 67 -239 181c0 89 76 150 159 175c-77 22 -148 73 -148 160c0 120 117 173 228 173c110 0 229 -53 229 -173c0 -87 -72 -138 -149 -160c83 -25 159 -86 159 -175c0 -113 -108 -181 -239 -181zM291 378c41 7 145 34 145 115c0 69 -65 110 -145 110
c-81 0 -144 -41 -144 -110c0 -81 104 -108 144 -115zM291 62c82 0 155 44 155 116c0 87 -114 124 -155 129c-41 -5 -155 -42 -155 -129c0 -72 72 -116 155 -116z" />
    <glyph glyph-name="nine.onum" unicode="&#xf739;" horiz-adv-x="591" 
d="M269 -128c-85 0 -143 33 -185 80l42 62c34 -40 74 -68 143 -68c135 0 188 135 188 262c0 8 0 17 -1 26c-29 -46 -103 -104 -188 -104c-120 0 -219 71 -219 213c0 115 88 218 234 218c186 0 258 -163 258 -345c0 -180 -85 -344 -272 -344zM287 202c66 0 131 41 167 100
c-8 82 -52 185 -168 185c-102 0 -153 -77 -153 -141c0 -98 68 -144 154 -144z" />
    <glyph glyph-name="question.smcp" unicode="&#xf73f;" horiz-adv-x="396" 
d="M373 434c0 -122 -168 -135 -168 -209c0 -12 6 -26 26 -40l-57 -24c-27 21 -36 45 -36 66c0 101 158 111 158 194c0 43 -37 74 -102 74c-67 0 -111 -28 -144 -69l-40 47c43 54 108 88 190 88c108 0 173 -58 173 -127zM246 45c0 -30 -25 -55 -55 -55s-55 25 -55 55
s25 55 55 55s55 -25 55 -55z" />
    <glyph glyph-name="A.smcp" unicode="&#xf761;" horiz-adv-x="572" 
d="M240 550h93l232 -550h-87l-51 120h-281l-51 -120h-88zM403 189l-116 279l-117 -279h233z" />
    <glyph glyph-name="B.smcp" unicode="&#xf762;" horiz-adv-x="554" 
d="M340 0h-265v550h259c102 0 164 -58 164 -141c0 -66 -44 -111 -94 -125c59 -14 106 -71 106 -135c0 -89 -63 -149 -170 -149zM329 69c62 0 99 34 99 88c0 47 -34 90 -99 90h-175v-178h175zM325 316c60 0 92 36 92 82c0 50 -33 83 -92 83h-171v-165h171z" />
    <glyph glyph-name="C.smcp" unicode="&#xf763;" horiz-adv-x="582" 
d="M341 -12c-167 0 -294 118 -294 288c0 169 127 286 294 286c98 0 171 -46 218 -113l-63 -35c-33 48 -91 79 -155 79c-121 0 -214 -90 -214 -217s93 -219 214 -219c64 0 124 32 155 79l64 -35c-49 -67 -121 -113 -219 -113z" />
    <glyph glyph-name="D.smcp" unicode="&#xf764;" horiz-adv-x="615" 
d="M275 0h-200v550h200c180 0 293 -120 293 -276s-113 -274 -293 -274zM275 69c137 0 212 92 212 205c0 115 -73 207 -212 207h-121v-412h121z" />
    <glyph glyph-name="E.smcp" unicode="&#xf765;" horiz-adv-x="509" 
d="M457 0h-382v550h382v-69h-303v-165h298v-69h-298v-178h303v-69z" />
    <glyph glyph-name="F.smcp" unicode="&#xf766;" horiz-adv-x="491" 
d="M154 0h-79v550h382v-69h-303v-165h298v-69h-298v-247z" />
    <glyph glyph-name="G.smcp" unicode="&#xf767;" horiz-adv-x="626" 
d="M341 -12c-164 0 -294 116 -294 287s130 287 294 287c97 0 170 -42 221 -101l-61 -41c-36 43 -94 72 -160 72c-121 0 -213 -90 -213 -217c0 -126 92 -218 213 -218c67 0 119 30 147 57v107h-170v66h248v-203c-54 -58 -133 -96 -225 -96z" />
    <glyph glyph-name="H.smcp" unicode="&#xf768;" horiz-adv-x="635" 
d="M560 0h-77v248h-329v-248h-79v550h79v-233h329v233h77v-550z" />
    <glyph glyph-name="I.smcp" unicode="&#xf769;" horiz-adv-x="229" 
d="M154 0h-79v550h79v-550z" />
    <glyph glyph-name="J.smcp" unicode="&#xf76a;" horiz-adv-x="422" 
d="M158 -12c-61 0 -112 22 -150 68l38 57c24 -31 59 -56 107 -56c71 0 115 46 115 113v380h78v-386c0 -120 -81 -176 -188 -176z" />
    <glyph glyph-name="K.smcp" unicode="&#xf76b;" horiz-adv-x="534" 
d="M520 0h-97l-216 243l-53 -58v-185h-79v550h79v-275l248 275h98l-242 -261z" />
    <glyph glyph-name="L.smcp" unicode="&#xf76c;" horiz-adv-x="458" 
d="M420 0h-345v550h79v-481h266v-69z" />
    <glyph glyph-name="M.smcp" unicode="&#xf76d;" horiz-adv-x="719" 
d="M644 0h-78v444l-189 -444h-34l-189 444v-444h-79v550h107l177 -419l178 419h107v-550z" />
    <glyph glyph-name="N.smcp" unicode="&#xf76e;" horiz-adv-x="632" 
d="M557 0h-79l-325 428v-428h-78v550h82l322 -420v420h78v-550z" />
    <glyph glyph-name="O.smcp" unicode="&#xf76f;" horiz-adv-x="662" 
d="M331 -12c-171 0 -284 125 -284 287s113 287 284 287s284 -125 284 -287s-113 -287 -284 -287zM331 57c124 0 204 94 204 218c0 125 -80 218 -204 218s-204 -93 -204 -218c0 -124 80 -218 204 -218z" />
    <glyph glyph-name="P.smcp" unicode="&#xf770;" horiz-adv-x="523" 
d="M154 0h-79v550h236c119 0 181 -78 181 -168s-60 -168 -181 -168h-157v-214zM304 282c72 0 108 43 108 100c0 58 -38 99 -108 99h-150v-199h150z" />
    <glyph glyph-name="Q.smcp" unicode="&#xf771;" horiz-adv-x="662" 
d="M331 -12c-171 0 -284 125 -284 287s113 287 284 287s284 -125 284 -287c0 -82 -29 -155 -80 -207l51 -56l-49 -41l-53 57c-43 -26 -95 -40 -153 -40zM331 57c39 0 74 9 104 26l-76 84l49 42l76 -84c32 38 51 91 51 150c0 125 -80 218 -204 218s-204 -93 -204 -218
c0 -124 80 -218 204 -218z" />
    <glyph glyph-name="R.smcp" unicode="&#xf772;" horiz-adv-x="545" 
d="M500 0h-92l-144 214h-110v-214h-79v550h236c116 0 182 -74 182 -168c0 -95 -62 -156 -149 -162zM304 282c72 0 108 42 108 100s-38 99 -108 99h-150v-199h150z" />
    <glyph glyph-name="S.smcp" unicode="&#xf773;" horiz-adv-x="504" 
d="M252 -12c-97 0 -175 37 -220 86l42 59c37 -40 102 -77 180 -77c96 0 134 45 134 94c0 140 -338 57 -338 256c0 91 86 156 199 156c90 0 158 -30 206 -79l-41 -55c-42 45 -105 66 -165 66c-69 0 -118 -36 -118 -87c0 -119 337 -46 337 -254c0 -93 -69 -165 -216 -165z" />
    <glyph glyph-name="T.smcp" unicode="&#xf774;" horiz-adv-x="472" 
d="M275 0h-78v481h-171v69h419v-69h-170v-481z" />
    <glyph glyph-name="U.smcp" unicode="&#xf775;" horiz-adv-x="623" 
d="M311 -12c-157 0 -236 89 -236 224v338h79v-333c0 -98 55 -160 157 -160s158 62 158 160v333h79v-338c0 -136 -80 -224 -237 -224z" />
    <glyph glyph-name="V.smcp" unicode="&#xf776;" horiz-adv-x="572" 
d="M333 0h-93l-233 550h89l191 -463l191 463h87z" />
    <glyph glyph-name="W.smcp" unicode="&#xf777;" horiz-adv-x="764" 
d="M588 0h-82l-125 431l-123 -431h-83l-165 550h87l123 -443l129 443h66l128 -444l124 444h86z" />
    <glyph glyph-name="X.smcp" unicode="&#xf778;" horiz-adv-x="567" 
d="M559 0h-94l-182 229l-180 -229h-94l225 282l-212 268h94l167 -215l168 215h94l-211 -267z" />
    <glyph glyph-name="Y.smcp" unicode="&#xf779;" horiz-adv-x="547" 
d="M314 0h-78v233l-229 317h91l178 -250l174 250h90l-226 -317v-233z" />
    <glyph glyph-name="Z.smcp" unicode="&#xf77a;" horiz-adv-x="516" 
d="M477 0h-437v59l325 422h-325v69h430v-59l-325 -422h332v-69z" />
    <glyph glyph-name="exclamdown.smcp" unicode="&#xf7a1;" horiz-adv-x="184" 
d="M49 0l14 384h58l14 -384h-86zM37 505c0 30 25 55 55 55s55 -25 55 -55c0 -29 -25 -55 -55 -55s-55 26 -55 55z" />
    <glyph glyph-name="questiondown.smcp" unicode="&#xf7b8;" horiz-adv-x="396" 
d="M23 116c0 122 168 135 168 209c0 12 -6 26 -26 40l57 24c27 -21 36 -45 36 -66c0 -101 -158 -111 -158 -194c0 -43 37 -74 102 -74c67 0 111 28 144 69l40 -47c-43 -54 -108 -88 -190 -88c-108 0 -173 58 -173 127zM150 505c0 30 25 55 55 55s55 -25 55 -55
s-25 -55 -55 -55s-55 25 -55 55z" />
    <glyph glyph-name="Agrave.smcp" unicode="&#xf7e0;" horiz-adv-x="572" 
d="M240 550h93l232 -550h-87l-51 120h-281l-51 -120h-88zM403 189l-116 279l-117 -279h233zM353 606h-57l-169 144h78z" />
    <glyph glyph-name="Aacute.smcp" unicode="&#xf7e1;" horiz-adv-x="572" 
d="M240 550h93l232 -550h-87l-51 120h-281l-51 -120h-88zM403 189l-116 279l-117 -279h233zM448 750l-169 -144h-57l148 144h78z" />
    <glyph glyph-name="Acircumflex.smcp" unicode="&#xf7e2;" horiz-adv-x="572" 
d="M240 550h93l232 -550h-87l-51 120h-281l-51 -120h-88zM403 189l-116 279l-117 -279h233zM420 606h-51l-83 106l-80 -106h-51l95 144h72z" />
    <glyph glyph-name="Atilde.smcp" unicode="&#xf7e3;" horiz-adv-x="572" 
d="M240 550h93l232 -550h-87l-51 120h-281l-51 -120h-88zM403 189l-116 279l-117 -279h233zM347 604c-72 0 -75 92 -123 92c-27 0 -48 -26 -48 -86h-45c0 78 34 134 97 134c72 0 75 -92 123 -92c27 0 48 26 48 86h45c0 -78 -34 -134 -97 -134z" />
    <glyph glyph-name="Adieresis.smcp" unicode="&#xf7e4;" horiz-adv-x="572" 
d="M240 550h93l232 -550h-87l-51 120h-281l-51 -120h-88zM403 189l-116 279l-117 -279h233zM437 660c0 -25 -21 -46 -47 -46c-25 0 -46 21 -46 46c0 26 21 46 46 46c26 0 47 -20 47 -46zM230 660c0 -25 -21 -46 -46 -46c-26 0 -47 21 -47 46c0 26 21 46 47 46
c25 0 46 -20 46 -46z" />
    <glyph glyph-name="Aring.smcp" unicode="&#xf7e5;" horiz-adv-x="572" 
d="M240 550h93l232 -550h-87l-51 120h-281l-51 -120h-88zM403 189l-116 279l-117 -279h233zM288 604c-54 0 -99 45 -99 99s45 99 99 99s97 -45 97 -99s-43 -99 -97 -99zM288 644c32 0 58 27 58 59s-26 59 -58 59c-33 0 -59 -27 -59 -59s26 -59 59 -59z" />
    <glyph glyph-name="AE.smcp" unicode="&#xf7e6;" horiz-adv-x="821" 
d="M770 0h-383v120h-216l-76 -120h-89l352 550h412v-69h-305v-165h299v-69h-299v-178h305v-69zM387 189v279l-178 -279h178z" />
    <glyph glyph-name="Ccedilla.smcp" unicode="&#xf7e7;" horiz-adv-x="582" 
d="M340 -191c-43 0 -81 14 -101 30l19 38c25 -20 53 -29 80 -29c33 0 61 15 61 42c0 21 -12 35 -37 35c-14 0 -29 -6 -38 -17l-33 19l23 62c-154 12 -267 126 -267 287c0 169 127 286 294 286c98 0 171 -46 218 -113l-63 -35c-33 48 -91 79 -155 79
c-121 0 -214 -90 -214 -217s93 -219 214 -219c64 0 124 32 155 79l64 -35c-46 -63 -113 -107 -202 -112l-17 -44c10 8 24 11 37 11c38 0 66 -26 66 -67c0 -49 -46 -80 -104 -80z" />
    <glyph glyph-name="Egrave.smcp" unicode="&#xf7e8;" horiz-adv-x="509" 
d="M457 0h-382v550h382v-69h-303v-165h298v-69h-298v-178h303v-69zM336 606h-57l-169 144h78z" />
    <glyph glyph-name="Eacute.smcp" unicode="&#xf7e9;" horiz-adv-x="509" 
d="M457 0h-382v550h382v-69h-303v-165h298v-69h-298v-178h303v-69zM430 750l-169 -144h-57l148 144h78z" />
    <glyph glyph-name="Ecircumflex.smcp" unicode="&#xf7ea;" horiz-adv-x="509" 
d="M457 0h-382v550h382v-69h-303v-165h298v-69h-298v-178h303v-69zM403 606h-51l-83 106l-80 -106h-51l95 144h72z" />
    <glyph glyph-name="Edieresis.smcp" unicode="&#xf7eb;" horiz-adv-x="509" 
d="M457 0h-382v550h382v-69h-303v-165h298v-69h-298v-178h303v-69zM416 660c0 -25 -21 -46 -47 -46c-25 0 -46 21 -46 46c0 26 21 46 46 46c26 0 47 -20 47 -46zM209 660c0 -25 -21 -46 -46 -46c-26 0 -47 21 -47 46c0 26 21 46 47 46c25 0 46 -20 46 -46z" />
    <glyph glyph-name="Igrave.smcp" unicode="&#xf7ec;" horiz-adv-x="227" 
d="M154 0h-79v550h79v-550zM180 606h-57l-169 144h78z" />
    <glyph glyph-name="Iacute.smcp" unicode="&#xf7ed;" horiz-adv-x="227" 
d="M154 0h-79v550h79v-550zM275 750l-169 -144h-57l148 144h78z" />
    <glyph glyph-name="Icircumflex.smcp" unicode="&#xf7ee;" horiz-adv-x="227" 
d="M154 0h-79v550h79v-550zM247 606h-51l-83 106l-80 -106h-51l95 144h72z" />
    <glyph glyph-name="Idieresis.smcp" unicode="&#xf7ef;" horiz-adv-x="227" 
d="M154 0h-79v550h79v-550zM265 660c0 -25 -21 -46 -47 -46c-25 0 -46 21 -46 46c0 26 21 46 46 46c26 0 47 -20 47 -46zM58 660c0 -25 -21 -46 -46 -46c-26 0 -47 21 -47 46c0 26 21 46 47 46c25 0 46 -20 46 -46z" />
    <glyph glyph-name="Eth.smcp" unicode="&#xf7f0;" horiz-adv-x="626" 
d="M273 0h-200v251h-63v52h63v247h200c180 0 293 -120 293 -276s-113 -274 -293 -274zM285 251h-133v-182h121c137 0 212 92 212 205c0 115 -73 207 -212 207h-121v-178h133v-52z" />
    <glyph glyph-name="Ntilde.smcp" unicode="&#xf7f1;" horiz-adv-x="632" 
d="M557 0h-79l-325 428v-428h-78v550h82l322 -420v420h78v-550zM375 604c-72 0 -75 92 -123 92c-27 0 -48 -26 -48 -86h-45c0 78 34 134 97 134c72 0 75 -92 123 -92c27 0 48 26 48 86h45c0 -78 -34 -134 -97 -134z" />
    <glyph glyph-name="Ograve.smcp" unicode="&#xf7f2;" horiz-adv-x="662" 
d="M331 -12c-171 0 -284 125 -284 287s113 287 284 287s284 -125 284 -287s-113 -287 -284 -287zM331 57c124 0 204 94 204 218c0 125 -80 218 -204 218s-204 -93 -204 -218c0 -124 80 -218 204 -218zM397 606h-57l-169 144h78z" />
    <glyph glyph-name="Oacute.smcp" unicode="&#xf7f3;" horiz-adv-x="662" 
d="M331 -12c-171 0 -284 125 -284 287s113 287 284 287s284 -125 284 -287s-113 -287 -284 -287zM331 57c124 0 204 94 204 218c0 125 -80 218 -204 218s-204 -93 -204 -218c0 -124 80 -218 204 -218zM493 750l-169 -144h-57l148 144h78z" />
    <glyph glyph-name="Ocircumflex.smcp" unicode="&#xf7f4;" horiz-adv-x="662" 
d="M331 -12c-171 0 -284 125 -284 287s113 287 284 287s284 -125 284 -287s-113 -287 -284 -287zM331 57c124 0 204 94 204 218c0 125 -80 218 -204 218s-204 -93 -204 -218c0 -124 80 -218 204 -218zM466 606h-51l-83 106l-80 -106h-51l95 144h72z" />
    <glyph glyph-name="Otilde.smcp" unicode="&#xf7f5;" horiz-adv-x="662" 
d="M331 -12c-171 0 -284 125 -284 287s113 287 284 287s284 -125 284 -287s-113 -287 -284 -287zM331 57c124 0 204 94 204 218c0 125 -80 218 -204 218s-204 -93 -204 -218c0 -124 80 -218 204 -218zM394 604c-72 0 -75 92 -123 92c-27 0 -48 -26 -48 -86h-45
c0 78 34 134 97 134c72 0 75 -92 123 -92c27 0 48 26 48 86h45c0 -78 -34 -134 -97 -134z" />
    <glyph glyph-name="Odieresis.smcp" unicode="&#xf7f6;" horiz-adv-x="662" 
d="M331 -12c-171 0 -284 125 -284 287s113 287 284 287s284 -125 284 -287s-113 -287 -284 -287zM331 57c124 0 204 94 204 218c0 125 -80 218 -204 218s-204 -93 -204 -218c0 -124 80 -218 204 -218zM483 660c0 -25 -21 -46 -47 -46c-25 0 -46 21 -46 46c0 26 21 46 46 46
c26 0 47 -20 47 -46zM276 660c0 -25 -21 -46 -46 -46c-26 0 -47 21 -47 46c0 26 21 46 47 46c25 0 46 -20 46 -46z" />
    <glyph glyph-name="Oslash.smcp" unicode="&#xf7f8;" horiz-adv-x="662" 
d="M331 -12c-58 0 -109 14 -151 39l-20 -27h-67l43 59c-57 52 -89 129 -89 216c0 162 113 287 284 287c56 0 106 -14 148 -38l19 26h67l-42 -58c58 -52 92 -129 92 -217c0 -162 -113 -287 -284 -287zM331 57c124 0 204 94 204 218c0 63 -21 118 -57 157l-255 -346
c30 -19 67 -29 108 -29zM127 275c0 -62 19 -116 54 -155l255 346c-30 17 -65 27 -105 27c-124 0 -204 -93 -204 -218z" />
    <glyph glyph-name="Ugrave.smcp" unicode="&#xf7f9;" horiz-adv-x="623" 
d="M311 -12c-157 0 -236 89 -236 224v338h79v-333c0 -98 55 -160 157 -160s158 62 158 160v333h79v-338c0 -136 -80 -224 -237 -224zM377 606h-57l-169 144h78z" />
    <glyph glyph-name="Uacute.smcp" unicode="&#xf7fa;" horiz-adv-x="623" 
d="M311 -12c-157 0 -236 89 -236 224v338h79v-333c0 -98 55 -160 157 -160s158 62 158 160v333h79v-338c0 -136 -80 -224 -237 -224zM474 750l-169 -144h-57l148 144h78z" />
    <glyph glyph-name="Ucircumflex.smcp" unicode="&#xf7fb;" horiz-adv-x="623" 
d="M311 -12c-157 0 -236 89 -236 224v338h79v-333c0 -98 55 -160 157 -160s158 62 158 160v333h79v-338c0 -136 -80 -224 -237 -224zM444 606h-51l-83 106l-80 -106h-51l95 144h72z" />
    <glyph glyph-name="Udieresis.smcp" unicode="&#xf7fc;" horiz-adv-x="623" 
d="M311 -12c-157 0 -236 89 -236 224v338h79v-333c0 -98 55 -160 157 -160s158 62 158 160v333h79v-338c0 -136 -80 -224 -237 -224zM462 660c0 -25 -21 -46 -47 -46c-25 0 -46 21 -46 46c0 26 21 46 46 46c26 0 47 -20 47 -46zM255 660c0 -25 -21 -46 -46 -46
c-26 0 -47 21 -47 46c0 26 21 46 47 46c25 0 46 -20 46 -46z" />
    <glyph glyph-name="Yacute.smcp" unicode="&#xf7fd;" horiz-adv-x="547" 
d="M314 0h-78v233l-229 317h91l178 -250l174 250h90l-226 -317v-233zM436 750l-169 -144h-57l148 144h78z" />
    <glyph glyph-name="Thorn.smcp" unicode="&#xf7fe;" horiz-adv-x="523" 
d="M154 0h-79v550h79v-92h157c119 0 181 -78 181 -168c0 -91 -60 -169 -181 -169h-157v-121zM304 190c72 0 108 42 108 100c0 56 -36 99 -108 99h-150v-199h150z" />
    <glyph glyph-name="Ydieresis.smcp" unicode="&#xf7ff;" horiz-adv-x="547" 
d="M314 0h-78v233l-229 317h91l178 -250l174 250h90l-226 -317v-233zM426 660c0 -25 -21 -46 -47 -46c-25 0 -46 21 -46 46c0 26 21 46 46 46c26 0 47 -20 47 -46zM219 660c0 -25 -21 -46 -46 -46c-26 0 -47 21 -47 46c0 26 21 46 47 46c25 0 46 -20 46 -46z" />
    </font>
</defs>
</svg>
